TAIFUN With Song - качественная и редкая музыка
Навигация
Jazz и Blues Гибкая ритмика, импровизационное начало, гармонии и мелодии - все это Jazz. Blues - жизнеутверждающая музыка, рожденная из душевной боли

А знаете ли Вы, что...
Какая песня, часто приписываемая Элвису Пресли, никогда им не записывалась?
«Песню «Only You» часто приписывают Элвису Пресли, хотя на самом деле наиболее известными её исполнителями является группа «The Platters». Элвис пел «Only You» на некоторых концертах, но не существует ни одной аудио- или видеозаписи этой композиции в его исполнении.»
 
Опции темы

  #1
Старый 07.07.2019, 08:00
sergych
Координатор
Досье
 
Аватар для sergych
Релиз J.J. Cale - Okie


1974 - J.J. Cale - Okie




Исполнитель/Artist: J.J. Cale
Альбом/Album: Okie
Год/Year: 1974
Жанр/Genre: Blues, Americana, Tulsa Sound
Страна/Country: Германия
Рекорд-лейбл/Record label: PolyGram / Mercury
Номер в каталоге/Catalogue #: 842 102-2
Формат/Format: Free Lossless Audio Codec (*.flac)
Качество/Quality: Lossless
Тип рипа/RIP Type: image+.cue
Продолжительность/Length: 00:29:08
Источник/Source: Собственный рип
Размер/Size: 155.8 MB

Сканы в комплекте

Треклист

01. Crying [0:02:35.62]
02. I´Ll Be There (If You Ever Want Me) [0:02:24.00]
03. Starbound [0:02:00.13]
04. Rock And Roll Records [0:02:10.00]
05. The Old Man And Me [0:02:06.00]
06. Everlovin´ Woman [0:02:12.00]
07. Cajun Moon [0:02:14.00]
08. I´D Like To Love You Baby [0:02:52.00]
09. Anyway The Wind Blows [0:03:24.00]
10. Precious Memories [0:02:11.00]
11. Okie [0:01:59.00]
12. I Got The Same Old Blues [0:02:59.50]
[свернуть]

Превью на YouTube

[свернуть]

EAC лог

Exact Audio Copy V1.3 from 2. September 2016

EAC extraction logfile from 21. May 2019, 0:00

J.J. Cale / Okie

Used drive : PIONEER DVD-RW DVR-220L Adapter: 1 ID: 0

Read mode : Secure
Utilize accurate stream : Yes
Defeat audio cache : Yes
Make use of C2 pointers : No

Read offset correction : 6
Overread into Lead-In and Lead-Out : No
Fill up missing offset samples with silence : Yes
Delete leading and trailing silent blocks : No
Null samples used in CRC calculations : Yes
Used interface : Installed external ASPI interface

Used output format : User Defined Encoder
Selected bitrate : 1024 kBit/s
Quality : High
Add ID3 tag : No
Command line compressor : C:\Program Files (x86)\Exact Audio Copy\Flac\flac.exe
Additional command line options : -6 -V -T "ARTIST=%artist%" -T "TITLE=%title%" -T "ALBUM=%albumtitle%" -T "DATE=%year%" -T "TRACKNUMBER=%tracknr%" -T "GENRE=%genre%" -T "COMMENT=%comment%" -T "BAND=%albuminterpret%" -T "ALBUMARTIST=%albuminterpret%" -T "COMPOSER=%composer%" %haslyrics%--tag-from-file=LYRICS="%lyricsfile%"%haslyrics% -T "DISCNUMBER=%cdnumber%" -T "TOTALDISCS=%totalcds%" -T "TOTALTRACKS=%numtracks%" %hascover%--picture="%coverfile%"%hascover% %source% -o %dest%


TOC of the extracted CD

Track | Start | Length | Start sector | End sector
---------------------------------------------------------
1 | 0:00.33 | 2:35.62 | 33 | 11719
2 | 2:36.20 | 2:24.00 | 11720 | 22519
3 | 5:00.20 | 2:00.13 | 22520 | 31532
4 | 7:00.33 | 2:10.00 | 31533 | 41282
5 | 9:10.33 | 2:06.00 | 41283 | 50732
6 | 11:16.33 | 2:12.00 | 50733 | 60632
7 | 13:28.33 | 2:14.00 | 60633 | 70682
8 | 15:42.33 | 2:52.00 | 70683 | 83582
9 | 18:34.33 | 3:24.00 | 83583 | 98882
10 | 21:58.33 | 2:11.00 | 98883 | 108707
11 | 24:09.33 | 1:59.00 | 108708 | 117632
12 | 26:08.33 | 2:59.50 | 117633 | 131107


Range status and errors

Selected range

Filename C:\mm\J.J. Cale\1974 - Okie [842 102-2]\J.J. Cale - Okie.wav

Peak level 95.9 %
Extraction speed 4.1 X
Range quality 100.0 %
Test CRC BA4163F8
Copy CRC BA4163F8
Copy OK

No errors occurred


AccurateRip summary

Track 1 cannot be verified as accurate (confidence 103) [AE010CE3], AccurateRip returned [26A3F2F9] (AR v2)
Track 2 cannot be verified as accurate (confidence 104) [DAA985A6], AccurateRip returned [71A0C29E] (AR v2)
Track 3 cannot be verified as accurate (confidence 104) [31546C3A], AccurateRip returned [413C4C21] (AR v2)
Track 4 cannot be verified as accurate (confidence 104) [A20F890E], AccurateRip returned [7B493161] (AR v2)
Track 5 cannot be verified as accurate (confidence 103) [1F7190EA], AccurateRip returned [A5C4DD13] (AR v2)
Track 6 cannot be verified as accurate (confidence 104) [210CF2F6], AccurateRip returned [989AC8DB] (AR v2)
Track 7 cannot be verified as accurate (confidence 104) [70D9931A], AccurateRip returned [FDB86D97] (AR v2)
Track 8 cannot be verified as accurate (confidence 104) [0FA70065], AccurateRip returned [8781EE95] (AR v2)
Track 9 cannot be verified as accurate (confidence 104) [E82AF33C], AccurateRip returned [BD38029C] (AR v2)
Track 10 cannot be verified as accurate (confidence 103) [A4B3B530], AccurateRip returned [39C360FA] (AR v2)
Track 11 cannot be verified as accurate (confidence 103) [D2EDC4AF], AccurateRip returned [C9821ABE] (AR v2)
Track 12 cannot be verified as accurate (confidence 104) [92551D5E], AccurateRip returned [018D865A] (AR v2)

No tracks could be verified as accurate
You may have a different pressing from the one(s) in the database

End of status report
[свернуть]

Файл CUE

REM GENRE Rock
REM DATE 1974
REM DISCID 7F06D40C
REM COMMENT "ExactAudioCopy v1.3"
PERFORMER "J.J. Cale"
TITLE "Okie"
REM COMPOSER ""
FILE "J.J. Cale - Okie.flac" WAVE
TRACK 01 AUDIO
TITLE "Crying"
PERFORMER "J.J. Cale"
REM COMPOSER ""
INDEX 00 00:00:00
INDEX 01 00:00:33
TRACK 02 AUDIO
TITLE "I.Ll Be There (If You Ever Want Me)"
PERFORMER "J.J. Cale"
REM COMPOSER ""
INDEX 01 02:36:20
TRACK 03 AUDIO
TITLE "Starbound"
PERFORMER "J.J. Cale"
REM COMPOSER ""
INDEX 01 05:00:20
TRACK 04 AUDIO
TITLE "Rock And Roll Records"
PERFORMER "J.J. Cale"
REM COMPOSER ""
INDEX 01 07:00:33
TRACK 05 AUDIO
TITLE "The Old Man And Me"
PERFORMER "J.J. Cale"
REM COMPOSER ""
INDEX 01 09:10:33
TRACK 06 AUDIO
TITLE "Everlovin. Woman"
PERFORMER "J.J. Cale"
REM COMPOSER ""
INDEX 01 11:16:33
TRACK 07 AUDIO
TITLE "Cajun Moon"
PERFORMER "J.J. Cale"
REM COMPOSER ""
INDEX 01 13:28:33
TRACK 08 AUDIO
TITLE "I.D Like To Love You Baby"
PERFORMER "J.J. Cale"
REM COMPOSER ""
INDEX 01 15:42:33
TRACK 09 AUDIO
TITLE "Anyway The Wind Blows"
PERFORMER "J.J. Cale"
REM COMPOSER ""
INDEX 01 18:34:33
TRACK 10 AUDIO
TITLE "Precious Memories"
PERFORMER "J.J. Cale"
REM COMPOSER ""
INDEX 01 21:58:33
TRACK 11 AUDIO
TITLE "Okie"
PERFORMER "J.J. Cale"
REM COMPOSER ""
INDEX 01 24:09:33
TRACK 12 AUDIO
TITLE "I Got The Same Old Blues"
PERFORMER "J.J. Cale"
REM COMPOSER ""
INDEX 01 26:08:33
[свернуть]

Лог проверки качества

AUDIOCHECKER v2.0 beta (build 457) - by Dester - [Ссылки могут видеть только зарегистрированные и активированные пользователи.]
[Only registered and activated users can see links.]
~~~~~~~~~~~~~~~~~~~~~~~~~~~~~~~~~~
-=== НЕ РЕДАКТИРУЙТЕ ЭТОТ ФАЙЛ! ===-

Путь: ...\1974 - Okie [842 102-2]

1 -=- J.J. Cale - Okie.flac -=- CDDA (100%)

262363444
[свернуть]

Спектр частот

[свернуть]

Скачать J.J. Cale - Okie

[Ссылки могут видеть только зарегистрированные и активированные пользователи.]
[Only registered and activated users can see links.]

password: sergych
[свернуть]

Контрольная сумма (хеш-сумма) архива

MD5: c1a48f2cd6872d238e60db2df2fefa88
[свернуть]
My opinion of release: 9/10

Вверх
2 пользователя(ей) сказали cпасибо:
swint68 (07.07.2019), TAIFUN (08.07.2019)
Похожие темы
Тема Автор Раздел Ответов Последнее сообщение
Альбом J.J. Cale - Really sergych Jazz и Blues 0 29.06.2019 17:26
Альбом J.J. Cale & Eric Clapton - The Road To Escondido sergych Blues Rock 0 18.11.2016 20:47
Альбом Eric Clapton & Friends - The Breeze: An Appreciation of JJ Cale sergych Blues Rock 0 13.09.2014 20:00
Релиз J.J. Cale - Roll On PUPOKIN Jazz и Blues 0 26.05.2009 18:12


Метки
1974 , americana , blues , j.j. cale , okie , tulsa sound

Опции темы

Ваши права в разделе
Вы не можете создавать новые темы
Вы не можете отвечать в темах
Вы не можете прикреплять вложения
Вы не можете редактировать свои сообщения

Быстрый переход



Текущее время: 07:03. Часовой пояс GMT +3.
Powered by vBulletin® Version 3.8.10
Copyright ©2000 - 2019, vBulletin Solutions, Inc. Перевод: zCarot
© 2008 - 2019 Taifun With Song
Яндекс.Метрика