TAIFUN With Song - качественная и редкая музыка
Навигация
Jazz и Blues Гибкая ритмика, импровизационное начало, гармонии и мелодии - все это Jazz. Blues - жизнеутверждающая музыка, рожденная из душевной боли

А знаете ли Вы, что...
Какое совпадение связало смерти солиста Boney M и Григория Распутина?
«Бобби Фаррелл, единственный мужчина в диско-группе Boney M, во время исполнения одного из главных хитов группы «Rasputin» часто гримировался в образ Распутина. Фаррелл умер от остановки сердца во время гастролей в Санкт-Петербурге 30 декабря 2010 года — того же числа и в том же городе, что и сам Распутин.»
 
Опции темы

  #1
Старый 29.06.2019, 17:26
sergych
Координатор
Досье
 
Аватар для sergych
Релиз J.J. Cale - Really


1972 - J.J. Cale - Really




Исполнитель/Artist: J.J. Cale
Альбом/Album: Really
Год/Year: 1972
Жанр/Genre: Blues, Americana, Tulsa Sound
Страна/Country: Германия
Рекорд-лейбл/Record label: PolyGram / Mercury
Номер в каталоге/Catalogue #: 810 314-2
Формат/Format: Free Lossless Audio Codec (*.flac)
Качество/Quality: Lossless
Тип рипа/RIP Type: image+.cue
Продолжительность/Length: 00:31:01
Источник/Source: Собственный рип
Размер/Size: 168.8 MB

Сканы в комплекте

Треклист

01. Lies [0:02:56.00]
02. Everything Will Be Alright [0:03:15.00]
03. I'll Kiss The World Goodbye [0:01:47.35]
04. Changes [0:02:25.15]
05. Right Down Here [0:03:14.62]
06. If You're Ever In Oklahoma [0:02:06.38]
07. Ridin' Home [0:02:39.00]
08. Going Down [0:03:00.50]
09. Soulin' [0:02:19.62]
10. Playing In The Street [0:01:51.38]
11. Mo Jo [0:02:29.00]
12. Louisiana Women [0:02:56.37]
[свернуть]

Превью на YouTube

[свернуть]

Исполнители/Performers

J. J. Cale – guitar, vocals
Barry Beckett, Bobby Woods, David Briggs – piano
Bill Boatman, Jimmy Capps, Jimmy Johnson, Mac Gayden – guitar
George Soulé, Jim Karstein, Kenneth A. Buttrey, Roger Hawkins – drums
Vassar Clements – violin
Kossie Gardner – organ
Bob Ray, David Hood, Gary Gilmore, Joe Zinkan, Norbert Putnam – bass guitar
Josh Graves – dobro
Bob Holmes – harmony vocal
Bill Humble – trombone
Charlie McCoy – harmonica
Farrell Morris – percussion, congas, drums
Bob Phillips, Don Sheffield – trumpet
Norman Ray Bass – saxophone, vocals
Robert Tarrant – congas
[свернуть]

EAC лог

Exact Audio Copy V1.3 from 2. September 2016

EAC extraction logfile from 20. May 2019, 21:59

J.J. Cale / Really

Used drive : PIONEER DVD-RW DVR-220L Adapter: 1 ID: 0

Read mode : Secure
Utilize accurate stream : Yes
Defeat audio cache : Yes
Make use of C2 pointers : No

Read offset correction : 6
Overread into Lead-In and Lead-Out : No
Fill up missing offset samples with silence : Yes
Delete leading and trailing silent blocks : No
Null samples used in CRC calculations : Yes
Used interface : Installed external ASPI interface

Used output format : User Defined Encoder
Selected bitrate : 1024 kBit/s
Quality : High
Add ID3 tag : No
Command line compressor : C:\Program Files (x86)\Exact Audio Copy\Flac\flac.exe
Additional command line options : -6 -V -T "ARTIST=%artist%" -T "TITLE=%title%" -T "ALBUM=%albumtitle%" -T "DATE=%year%" -T "TRACKNUMBER=%tracknr%" -T "GENRE=%genre%" -T "COMMENT=%comment%" -T "BAND=%albuminterpret%" -T "ALBUMARTIST=%albuminterpret%" -T "COMPOSER=%composer%" %haslyrics%--tag-from-file=LYRICS="%lyricsfile%"%haslyrics% -T "DISCNUMBER=%cdnumber%" -T "TOTALDISCS=%totalcds%" -T "TOTALTRACKS=%numtracks%" %hascover%--picture="%coverfile%"%hascover% %source% -o %dest%


TOC of the extracted CD

Track | Start | Length | Start sector | End sector
---------------------------------------------------------
1 | 0:00.33 | 2:56.00 | 33 | 13232
2 | 2:56.33 | 3:15.00 | 13233 | 27857
3 | 6:11.33 | 1:47.35 | 27858 | 35917
4 | 7:58.68 | 2:25.15 | 35918 | 46807
5 | 10:24.08 | 3:14.62 | 46808 | 61419
6 | 13:38.70 | 2:06.38 | 61420 | 70907
7 | 15:45.33 | 2:39.00 | 70908 | 82832
8 | 18:24.33 | 3:00.50 | 82833 | 96382
9 | 21:25.08 | 2:19.62 | 96383 | 106869
10 | 23:44.70 | 1:51.38 | 106870 | 115232
11 | 25:36.33 | 2:29.00 | 115233 | 126407
12 | 28:05.33 | 2:56.37 | 126408 | 139644


Range status and errors

Selected range

Filename C:\mm\J.J. Cale\1972 - Really [810 314-2]\J.J. Cale - Really.wav

Peak level 97.7 %
Extraction speed 6.8 X
Range quality 100.0 %
Test CRC 47FBD713
Copy CRC 47FBD713
Copy OK

No errors occurred


AccurateRip summary

Track 1 cannot be verified as accurate (confidence 83) [33FB097D], AccurateRip returned [2B287D5A] (AR v2)
Track 2 cannot be verified as accurate (confidence 83) [001F47E3], AccurateRip returned [038A4E51] (AR v2)
Track 3 cannot be verified as accurate (confidence 83) [F6DF4CA8], AccurateRip returned [40E95414] (AR v2)
Track 4 cannot be verified as accurate (confidence 83) [312F77ED], AccurateRip returned [B3CB4614] (AR v2)
Track 5 cannot be verified as accurate (confidence 82) [32E88005], AccurateRip returned [2FE9D7ED] (AR v2)
Track 6 cannot be verified as accurate (confidence 82) [10898292], AccurateRip returned [B0968C37] (AR v2)
Track 7 cannot be verified as accurate (confidence 83) [0D4E8BD0], AccurateRip returned [0961AC11] (AR v2)
Track 8 cannot be verified as accurate (confidence 83) [DEBB27D0], AccurateRip returned [DA6383E7] (AR v2)
Track 9 cannot be verified as accurate (confidence 83) [6529CAD5], AccurateRip returned [DB7B863C] (AR v2)
Track 10 cannot be verified as accurate (confidence 83) [3D345EF6], AccurateRip returned [EA0DE9F3] (AR v2)
Track 11 cannot be verified as accurate (confidence 84) [A20B5668], AccurateRip returned [7D8427CD] (AR v2)
Track 12 cannot be verified as accurate (confidence 84) [E1225FEB], AccurateRip returned [0948CDCF] (AR v2)

No tracks could be verified as accurate
You may have a different pressing from the one(s) in the database

End of status report
[свернуть]

Файл CUE

REM GENRE Rock
REM DATE 1972
REM DISCID A507450C
REM COMMENT "ExactAudioCopy v1.3"
PERFORMER "J.J. Cale"
TITLE "Really"
REM COMPOSER ""
FILE "J.J. Cale - Really.flac" WAVE
TRACK 01 AUDIO
TITLE "Lies"
PERFORMER "J.J. Cale"
REM COMPOSER ""
INDEX 00 00:00:00
INDEX 01 00:00:33
TRACK 02 AUDIO
TITLE "Everything Will Be Alright"
PERFORMER "J.J. Cale"
REM COMPOSER ""
INDEX 01 02:56:33
TRACK 03 AUDIO
TITLE "I'll Kiss The World Goodbye"
PERFORMER "J.J. Cale"
REM COMPOSER ""
INDEX 01 06:11:33
TRACK 04 AUDIO
TITLE "Changes"
PERFORMER "J.J. Cale"
REM COMPOSER ""
INDEX 01 07:58:68
TRACK 05 AUDIO
TITLE "Right Down Here"
PERFORMER "J.J. Cale"
REM COMPOSER ""
INDEX 01 10:24:08
TRACK 06 AUDIO
TITLE "If You're Ever In Oklahoma"
PERFORMER "J.J. Cale"
REM COMPOSER ""
INDEX 01 13:38:70
TRACK 07 AUDIO
TITLE "Ridin' Home"
PERFORMER "J.J. Cale"
REM COMPOSER ""
INDEX 01 15:45:33
TRACK 08 AUDIO
TITLE "Going Down"
PERFORMER "J.J. Cale"
REM COMPOSER ""
INDEX 01 18:24:33
TRACK 09 AUDIO
TITLE "Soulin'"
PERFORMER "J.J. Cale"
REM COMPOSER ""
INDEX 01 21:25:08
TRACK 10 AUDIO
TITLE "Playing In The Street"
PERFORMER "J.J. Cale"
REM COMPOSER ""
INDEX 01 23:44:70
TRACK 11 AUDIO
TITLE "Mo Jo"
PERFORMER "J.J. Cale"
REM COMPOSER ""
INDEX 01 25:36:33
TRACK 12 AUDIO
TITLE "Louisiana Women"
PERFORMER "J.J. Cale"
REM COMPOSER ""
INDEX 01 28:05:33
[свернуть]

Лог проверки качества

AUDIOCHECKER v2.0 beta (build 457) - by Dester - [Ссылки могут видеть только зарегистрированные и активированные пользователи.]
[Only registered and activated users can see links.]
~~~~~~~~~~~~~~~~~~~~~~~~~~~~~~~~~~
-=== НЕ РЕДАКТИРУЙТЕ ЭТОТ ФАЙЛ! ===-

Путь: ...\1972 - Really [810 314-2]

1 -=- J.J. Cale - Really.flac -=- CDDA (100%)

94840036
[свернуть]

Спектр частот

[свернуть]

Скачать J.J. Cale - Really

[Ссылки могут видеть только зарегистрированные и активированные пользователи.]
[Only registered and activated users can see links.]

password: sergych
[свернуть]

Контрольная сумма (хеш-сумма) архива

MD5: 787f9bf2b9f73105fef4033f7f8613df
[свернуть]
My opinion of release: 9/10

Вверх
2 пользователя(ей) сказали cпасибо:
swint68 (03.07.2019), TAIFUN (01.07.2019)
Похожие темы
Тема Автор Раздел Ответов Последнее сообщение
Альбом J.J. Cale & Eric Clapton - The Road To Escondido sergych Blues Rock 0 18.11.2016 20:47
Альбом Eric Clapton & Friends - The Breeze: An Appreciation of JJ Cale sergych Blues Rock 0 13.09.2014 20:00
Релиз J.J. Cale - Roll On PUPOKIN Jazz и Blues 0 26.05.2009 18:12


Метки
1972 , americana , blues , j.j. cale , tulsa sound

Опции темы

Ваши права в разделе
Вы не можете создавать новые темы
Вы не можете отвечать в темах
Вы не можете прикреплять вложения
Вы не можете редактировать свои сообщения

Быстрый переход




Текущее время: 14:56. Часовой пояс GMT +3.
Powered by vBulletin® Version 3.8.10
Copyright ©2000 - 2019, vBulletin Solutions, Inc. Перевод: zCarot
© 2008 - 2019 Taifun With Song
Яндекс.Метрика