TAIFUN With Song - качественная и редкая музыка
Навигация
Blues Rock К концу сороковых годов прошлого столетия в блюзе окончательно обосновалась электрогитара. Трудно сказать, что подтолкнуло многих блюзменов перейти с привычной акустической гитары на электрическую, но блюз с тех пор очень сильно изменился.

А знаете ли Вы, что...
Почему среди китайцев и вьетнамцев больше в процентном отношении людей с абсолютным слухом?
«Большинство диалектов китайского, вьетнамский и некоторые другие языки Азии и Африки являются тональными, то есть один и тот же слог может иметь разные значения в зависимости от высоты произносимого звука. Среди носителей тональных языков отмечается больший процент людей с абсолютным слухом, так как они естественным образом привыкают к различению тонов с раннего детства.»
 
Опции темы

  #1
Старый 14.08.2010, 16:21
sergych
Координатор
Досье
 
Аватар для sergych
Релиз Cyndi Lauper - Memphis Blues

2010 - Memphis Blues



Исполнитель/Artist: Cyndi Lauper
Альбом/Album: Memphis Blues
Год/Year: 2010
Издатель/Label: Mercer Street Records
Жанр/Genre: Blues Rock / Rock / Blues
Формат/Format: mp3 CBR
Качество/Quality: 320 kbps JStereo
Размер/Size: 124.3 MB
Продолжительность/Length: 00:45:43

Сканы в комплекте

Треклист

01 - Just Your Fool (feat. Charlie Musselwhite)
02 - Shattered Dreams (feat. Allen Toussaint)
03 - Early in the Mornin (feat. Allen Toussaint and B.B. King)
04 - Romance in the Dark
05 - How Blue Can You Get (feat. Johnny Lang)
06 - Down Don't Bother Me (feat. Charlie Musselwhite)
07 - Don't Cry No More
08 - Rollin' and Tumblin' (feat. Ann Peebles) (Traditional)
09 - Down So Low
10 - Mother Earth (Memphis Slim) (feat. Allen Toussaint)
11 - Crossroads (feat. Jonny Lang)
[свернуть]

Скачать


[Ссылки могут видеть только зарегистрированные и активированные пользователи.]
[Only registered and activated users can see links.]

password: sergych
[свернуть]


My opinion of release: 7/10

Release info RInfo

Несколько неожиданно Синди взяла и вместо привычного для неё рок-поп-дэнса запела блюз, так что я не устоял и приобрёл этот её 11й альбом . Я, конечно, не музыкальный критик, но, по моему мнению, - вышло достаточно неплохо.
Кстати, альбомчик-то занял 26-е место в Billboards Top 200 Albums Chart
__________________
TAIFUN.Wings of Soul


Последний раз редактировалось sergych, 06.06.2019 в 09:46. Причина: перезалито с умершего narod.ru
Вверх
  #2
Старый 15.06.2019, 07:46
sergych
Координатор
Досье
 
Аватар для sergych
Релиз Re: Cyndi Lauper - Memphis Blues


2010 - Cyndi Lauper - Memphis Blues




Исполнитель/Artist: Cyndi Lauper
Альбом/Album: Memphis Blues
Год/Year: 2010
Жанр/Genre: Blues Rock, Rock, Blues
Страна/Country: Россия
Рекорд-лейбл/Record label: Mercer Street Records
Номер в каталоге/Catalogue #: DWT70166
Формат/Format: Free Lossless Audio Codec (*.flac)
Качество/Quality: Lossless
Тип рипа/RIP Type: image+.cue
Продолжительность/Length: 00:45:43
Источник/Source: Собственный рип
Размер/Size: 318.7 MB

Сканы в комплекте

Треклист

01. Just Your Fool [0:03:37.63]
02. Shattered Dreams [0:03:52.22]
03. Early in the Mornin' [0:03:51.10]
04. Romance in the Dark [0:05:44.13]
05. How Blue Can You Get? [0:05:23.60]
06. Down Don't Bother Me [0:03:03.14]
07. Don't Cry No More [0:02:44.16]
08. Rollin' And Tumblin' [0:03:29.33]
09. Down So Low [0:03:55.32]
10. Mother Earth [0:05:19.09]
11. Crossroads [0:04:42.35]
[свернуть]

Превью на YouTube

[свернуть]

Исполнители/Performers

Cyndi Lauper – lead vocals, production
"Skip" Charles Pitts - guitar
Lester Snell – guitar
Charlie Musselwhite - harmonica
Allen Toussaint – keyboards
Howard Grimes – drums
William Wittman - bass, engineer
Leroy Hodges – bass
Marc Franklin – trumpet
Derrick Williams – tenor sax
Kirk Smothers – baritone sax
B.B. King – vocals and guitar on "Early in the Mornin"
Jonny Lang – vocals and guitar on "How Blue Can You Get"
Ann Peebles – vocals on "Rollin' and Tumblin"
[свернуть]

EAC лог

Exact Audio Copy V1.3 from 2. September 2016

EAC extraction logfile from 6. June 2019, 12:03

Cyndi Lauper / Memphis Blues

Used drive : PIONEER DVD-RW DVR-220L Adapter: 1 ID: 0

Read mode : Secure
Utilize accurate stream : Yes
Defeat audio cache : Yes
Make use of C2 pointers : No

Read offset correction : 6
Overread into Lead-In and Lead-Out : No
Fill up missing offset samples with silence : Yes
Delete leading and trailing silent blocks : No
Null samples used in CRC calculations : Yes
Used interface : Installed external ASPI interface

Used output format : User Defined Encoder
Selected bitrate : 1024 kBit/s
Quality : High
Add ID3 tag : No
Command line compressor : C:\Program Files (x86)\Exact Audio Copy\Flac\flac.exe
Additional command line options : -6 -V -T "ARTIST=%artist%" -T "TITLE=%title%" -T "ALBUM=%albumtitle%" -T "DATE=%year%" -T "TRACKNUMBER=%tracknr%" -T "GENRE=%genre%" -T "COMMENT=%comment%" -T "BAND=%albuminterpret%" -T "ALBUMARTIST=%albuminterpret%" -T "COMPOSER=%composer%" %haslyrics%--tag-from-file=LYRICS="%lyricsfile%"%haslyrics% -T "DISCNUMBER=%cdnumber%" -T "TOTALDISCS=%totalcds%" -T "TOTALTRACKS=%numtracks%" %hascover%--picture="%coverfile%"%hascover% %source% -o %dest%


TOC of the extracted CD

Track | Start | Length | Start sector | End sector
---------------------------------------------------------
1 | 0:00.00 | 3:37.63 | 0 | 16337
2 | 3:37.63 | 3:52.22 | 16338 | 33759
3 | 7:30.10 | 3:51.10 | 33760 | 51094
4 | 11:21.20 | 5:44.13 | 51095 | 76907
5 | 17:05.33 | 5:23.60 | 76908 | 101192
6 | 22:29.18 | 3:03.14 | 101193 | 114931
7 | 25:32.32 | 2:44.16 | 114932 | 127247
8 | 28:16.48 | 3:29.33 | 127248 | 142955
9 | 31:46.06 | 3:55.32 | 142956 | 160612
10 | 35:41.38 | 5:19.09 | 160613 | 184546
11 | 41:00.47 | 4:42.35 | 184547 | 205731


Range status and errors

Selected range

Filename C:\mm\Cyndi Lauper\2010 - Memphis Blues [DWT70166]\Cyndi Lauper - Memphis Blues.wav

Peak level 100.0 %
Extraction speed 7.0 X
Range quality 100.0 %
Test CRC F8C63064
Copy CRC F8C63064
Copy OK

No errors occurred


AccurateRip summary

Track 1 cannot be verified as accurate (confidence 75) [7C2E9ACD], AccurateRip returned [9960C47B] (AR v2)
Track 2 cannot be verified as accurate (confidence 77) [B254975C], AccurateRip returned [E90B0155] (AR v2)
Track 3 cannot be verified as accurate (confidence 77) [25E22C85], AccurateRip returned [F8481DF3] (AR v2)
Track 4 cannot be verified as accurate (confidence 76) [0513DDBE], AccurateRip returned [10252773] (AR v2)
Track 5 cannot be verified as accurate (confidence 77) [4E54D0AB], AccurateRip returned [2669E5B5] (AR v2)
Track 6 cannot be verified as accurate (confidence 77) [D9A0A67B], AccurateRip returned [1D4B116E] (AR v2)
Track 7 cannot be verified as accurate (confidence 77) [03A1F32F], AccurateRip returned [3398AA33] (AR v2)
Track 8 cannot be verified as accurate (confidence 77) [08967B4C], AccurateRip returned [C0949FCD] (AR v2)
Track 9 cannot be verified as accurate (confidence 77) [456E270E], AccurateRip returned [2388CAA1] (AR v2)
Track 10 cannot be verified as accurate (confidence 77) [9534DB74], AccurateRip returned [3255EB12] (AR v2)
Track 11 cannot be verified as accurate (confidence 77) [45821092], AccurateRip returned [21629074] (AR v2)

No tracks could be verified as accurate
You may have a different pressing from the one(s) in the database

End of status report
[свернуть]

Файл CUE

REM GENRE Blues
REM DATE 2010
REM DISCID 8D0AB70B
REM COMMENT "ExactAudioCopy v1.3"
PERFORMER "Cyndi Lauper"
TITLE "Memphis Blues"
REM COMPOSER ""
FILE "Cyndi Lauper - Memphis Blues.flac" WAVE
TRACK 01 AUDIO
TITLE "Just Your Fool"
PERFORMER "Cyndi Lauper"
REM COMPOSER ""
INDEX 01 00:00:00
TRACK 02 AUDIO
TITLE "Shattered Dreams"
PERFORMER "Cyndi Lauper"
REM COMPOSER ""
INDEX 01 03:37:63
TRACK 03 AUDIO
TITLE "Early in the Mornin'"
PERFORMER "Cyndi Lauper"
REM COMPOSER ""
INDEX 01 07:30:10
TRACK 04 AUDIO
TITLE "Romance in the Dark"
PERFORMER "Cyndi Lauper"
REM COMPOSER ""
INDEX 01 11:21:20
TRACK 05 AUDIO
TITLE "How Blue Can You Get?"
PERFORMER "Cyndi Lauper"
REM COMPOSER ""
INDEX 01 17:05:33
TRACK 06 AUDIO
TITLE "Down Don't Bother Me"
PERFORMER "Cyndi Lauper"
REM COMPOSER ""
INDEX 01 22:29:18
TRACK 07 AUDIO
TITLE "Don't Cry No More"
PERFORMER "Cyndi Lauper"
REM COMPOSER ""
INDEX 01 25:32:32
TRACK 08 AUDIO
TITLE "Rollin' And Tumblin'"
PERFORMER "Cyndi Lauper"
REM COMPOSER ""
INDEX 01 28:16:48
TRACK 09 AUDIO
TITLE "Down So Low"
PERFORMER "Cyndi Lauper"
REM COMPOSER ""
INDEX 01 31:46:06
TRACK 10 AUDIO
TITLE "Mother Earth"
PERFORMER "Cyndi Lauper"
REM COMPOSER ""
INDEX 01 35:41:38
TRACK 11 AUDIO
TITLE "Crossroads"
PERFORMER "Cyndi Lauper"
REM COMPOSER ""
INDEX 01 41:00:47
[свернуть]

Лог проверки качества

AUDIOCHECKER v2.0 beta (build 457) - by Dester - [Ссылки могут видеть только зарегистрированные и активированные пользователи.]
[Only registered and activated users can see links.]
~~~~~~~~~~~~~~~~~~~~~~~~~~~~~~~~~~
-=== НЕ РЕДАКТИРУЙТЕ ЭТОТ ФАЙЛ! ===-

Путь: ...\2010 - Memphis Blues [DWT70166]

1 -=- Cyndi Lauper - Memphis Blues.flac -=- CDDA (100%)

182992340
[свернуть]

Спектр частот

[свернуть]

Скачать Cyndi Lauper - Memphis Blues

[Ссылки могут видеть только зарегистрированные и активированные пользователи.]
[Only registered and activated users can see links.]

password: sergych
[свернуть]

Контрольная сумма (хеш-сумма) архива

MD5: 414a8d415e1b7ff0a1ed7c6d4d0b4a45
[свернуть]
My opinion of release: 9/10

Release info RInfo

Есть у меня предположение, что это пиратка. А, за давностью лет обладания этим диском, опровергнуть это подозрение я не могу, поскольку не помню где и когда его покупал
Синди, впрочем, чудо как хороша
__________________
TAIFUN.Wings of Soul

Вверх
2 пользователя(ей) сказали cпасибо:
swint68 (19.06.2019), TAIFUN (17.06.2019)
Похожие темы
Тема Автор Раздел Ответов Последнее сообщение
Сборник Cyndi Lauper - Playlist: The Very Best of Cyndi Lauper sergych Soft Rock 1 18.03.2016 19:24
Альбом Cyndi Lauper - At Last sergych Soft Rock 2 08.03.2016 20:26
Сборник Cyndi Lauper - True Colors: The Best of Cyndi Lauper sergych Soft Rock 1 19.02.2016 05:43
Сборник Cyndi Lauper - The Essential. Cyndi Lauper sergych Soft Rock 0 10.11.2013 12:40
Live Cyndi Lauper - To Memphis, With Love sergych Blues Rock 0 25.11.2011 18:56


Метки
2010 , blues , blues rock , cyndi lauper , memphis blues , rock

Опции темы

Ваши права в разделе
Вы не можете создавать новые темы
Вы не можете отвечать в темах
Вы не можете прикреплять вложения
Вы не можете редактировать свои сообщения

Быстрый переход




Текущее время: 18:30. Часовой пояс GMT +3.
Powered by vBulletin® Version 3.8.10
Copyright ©2000 - 2019, vBulletin Solutions, Inc. Перевод: zCarot
© 2008 - 2019 Taifun With Song
Яндекс.Метрика