TAIFUN With Song - качественная и редкая музыка
Навигация
Jazz и Blues Гибкая ритмика, импровизационное начало, гармонии и мелодии - все это Jazz. Blues - жизнеутверждающая музыка, рожденная из душевной боли

А знаете ли Вы, что...
Где собачий вальс зовут ослиным маршем, а где — кошачьей полькой?
«Собачий вальс в разных странах называется по-разному. В Германии, Бельгии, Нидерландах — блошиный вальс. В Болгарии — кошачий марш, а в Финляндии — кошачья полька. В Венгрии — ослиный марш, а во Франции его почему-то называют отбивной котлетой.»
 
Опции темы

  #1
Старый 15.05.2016, 09:50
sergych
Координатор
Досье
 
Аватар для sergych
Релиз Cassandra Wilson - Blue Light 'Til Dawn


1993 - Cassandra Wilson - Blue Light 'Til Dawn




Исполнитель/Artist: Cassandra Wilson
Альбом/Album: Blue Light 'Til Dawn
Год/Year: 1993
Жанр/Genre: Jazz
Страна/Country: Нидерланды
Рекорд-лейбл/Record label: Blue Note
Номер в каталоге/Catalogue #: CDP 0777 7 81357 2 2
Формат/Format: Free Lossless Audio Codec (*.flac)
Качество/Quality: Lossless
Тип рипа/RIP Type: image+.cue
Продолжительность/Length: 00:56:12
Источник/Source: Собственный рип
Размер/Size: 362.1 MB

Сканы в комплекте

Треклист

01. You Don't Know What Love Is [0:06:05.20]
02. Come On In My Kitchen [0:04:53.62]
03. Tell Me You'll Wait For Me [0:04:48.13]
04. Children Of The Night [0:05:19.57]
05. Hellhound On My Trail [0:04:34.50]
06. Black Crow [0:04:38.23]
07. Sankofa [0:02:02.02]
08. Estrellas [0:01:59.45]
09. Redbone [0:05:35.73]
10. Tupelo Honey [0:05:36.67]
11. Blue Light 'Til Dawn [0:05:09.65]
12. I Can't Stand The Rain [0:05:27.23]
[свернуть]

youtube.com

[свернуть]

Исполнители/Performers

Cassandra Wilson – vocals
Brandon Ross – acoustic guitars and arrangements (tracks 1, 2, 4, 5, 10)
Charlie Burnham – violin (1, 10, 11), mandocello (10), arrangement (11)
Tony Cedras – accordion (2)
Olu Dara – cornet (5)
Don Byron – clarinet (6)
Gib Wharton – pedal steel guitar (8, 9)
Chris Whitley – national resophonic guitar (12)
Kenny Davis – bass (2, 3, 11), arrangement (3)
Lonnie Plaxico – bass (10)
Lance Carter – drums (2), percussion (4, 6), snares (10)
Kevin Johnson – snare (3), percussion (4, 6, 10)
Bill McClellan – percussion (6), drums (11)
Jeff Haynes – percussion (6, 8, 9, 11)
Cyro Baptista – percussion (6, 8, 9, 11), arrangements (6, 8)
Vinx – percussion (4, 6)
[свернуть]

EAC лог

Exact Audio Copy V1.1 from 23. June 2015

EAC extraction logfile from 14. May 2016, 15:03

Cassandra Wilson / Blue Light 'Til Dawn

Used drive : ATAPI iHAS124 D Adapter: 0 ID: 2

Read mode : Secure
Utilize accurate stream : Yes
Defeat audio cache : Yes
Make use of C2 pointers : No

Read offset correction : 6
Overread into Lead-In and Lead-Out : No
Fill up missing offset samples with silence : Yes
Delete leading and trailing silent blocks : No
Null samples used in CRC calculations : Yes
Used interface : Installed external ASPI interface

Used output format : User Defined Encoder
Selected bitrate : 1024 kBit/s
Quality : High
Add ID3 tag : Yes
Command line compressor : C:\Program Files (x86)\Exact Audio Copy\Flac\flac.exe
Additional command line options : -6 -V -T "ARTIST=%artist%" -T "TITLE=%title%" -T "ALBUM=%albumtitle%" -T "DATE=%year%" -T "TRACKNUMBER=%tracknr%" -T "GENRE=%genre%" -T "COMMENT=%comment%" -T "BAND=%albuminterpret%" -T "COMPOSER=%composer%" %haslyrics%--tag-from-file=LYRICS="%lyricsfile%"%haslyrics% -T "DISCNUMBER=%cdnumber%" -T "TOTALDISCS=%totalcds%" -T "TOTALTRACKS=%numtracks%" %hascover%--picture="%coverfile%"%hascover% %source% -o %dest%


TOC of the extracted CD

Track | Start | Length | Start sector | End sector
---------------------------------------------------------
1 | 0:00.00 | 6:05.20 | 0 | 27394
2 | 6:05.20 | 4:53.62 | 27395 | 49431
3 | 10:59.07 | 4:48.13 | 49432 | 71044
4 | 15:47.20 | 5:19.57 | 71045 | 95026
5 | 21:07.02 | 4:34.50 | 95027 | 115626
6 | 25:41.52 | 4:38.23 | 115627 | 136499
7 | 30:20.00 | 2:02.02 | 136500 | 145651
8 | 32:22.02 | 1:59.45 | 145652 | 154621
9 | 34:21.47 | 5:35.73 | 154622 | 179819
10 | 39:57.45 | 5:36.67 | 179820 | 205086
11 | 45:34.37 | 5:09.65 | 205087 | 228326
12 | 50:44.27 | 5:27.23 | 228327 | 252874


Range status and errors

Selected range

Filename C:\mm\Cassandra Wilson\1993 - Blue Light 'Til Dawn [CDP 0777 7 81357 2 2]\Cassandra Wilson - Blue Light 'Til Dawn.wav

Peak level 100.0 %
Extraction speed 9.3 X
Range quality 100.0 %
Test CRC 347969B6
Copy CRC 347969B6
Copy OK

No errors occurred


AccurateRip summary

Track 1 accurately ripped (confidence 200) [490CDDD9] (AR v2)
Track 2 accurately ripped (confidence 200) [61C988D9] (AR v2)
Track 3 accurately ripped (confidence 200) [453222B5] (AR v2)
Track 4 accurately ripped (confidence 200) [D3445BB2] (AR v2)
Track 5 accurately ripped (confidence 200) [4D40CB56] (AR v2)
Track 6 accurately ripped (confidence 200) [3C9C9F7C] (AR v2)
Track 7 accurately ripped (confidence 200) [CA44BB71] (AR v2)
Track 8 accurately ripped (confidence 200) [CA01C41B] (AR v2)
Track 9 accurately ripped (confidence 200) [D95B8312] (AR v2)
Track 10 accurately ripped (confidence 200) [E1686B7A] (AR v2)
Track 11 accurately ripped (confidence 200) [7CEFED08] (AR v2)
Track 12 accurately ripped (confidence 200) [522C30F1] (AR v2)

All tracks accurately ripped

End of status report
[свернуть]

Файл CUE

REM GENRE Jazz
REM DATE 1993
REM DISCID B40D2B0C
REM COMMENT "ExactAudioCopy v1.1"
PERFORMER "Cassandra Wilson"
TITLE "Blue Light 'Til Dawn"
FILE "Cassandra Wilson - Blue Light 'Til Dawn.flac" WAVE
TRACK 01 AUDIO
TITLE "You Don't Know What Love Is"
PERFORMER "Cassandra Wilson"
INDEX 01 00:00:00
TRACK 02 AUDIO
TITLE "Come On In My Kitchen"
PERFORMER "Cassandra Wilson"
INDEX 01 06:05:20
TRACK 03 AUDIO
TITLE "Tell Me You'll Wait For Me"
PERFORMER "Cassandra Wilson"
INDEX 01 10:59:07
TRACK 04 AUDIO
TITLE "Children Of The Night"
PERFORMER "Cassandra Wilson"
INDEX 01 15:47:20
TRACK 05 AUDIO
TITLE "Hellhound On My Trail"
PERFORMER "Cassandra Wilson"
INDEX 01 21:07:02
TRACK 06 AUDIO
TITLE "Black Crow"
PERFORMER "Cassandra Wilson"
INDEX 01 25:41:52
TRACK 07 AUDIO
TITLE "Sankofa"
PERFORMER "Cassandra Wilson"
INDEX 01 30:20:00
TRACK 08 AUDIO
TITLE "Estrellas"
PERFORMER "Cassandra Wilson"
INDEX 01 32:22:02
TRACK 09 AUDIO
TITLE "Redbone"
PERFORMER "Cassandra Wilson"
INDEX 01 34:21:47
TRACK 10 AUDIO
TITLE "Tupelo Honey"
PERFORMER "Cassandra Wilson"
INDEX 01 39:57:45
TRACK 11 AUDIO
TITLE "Blue Light 'Til Dawn"
PERFORMER "Cassandra Wilson"
INDEX 01 45:34:37
TRACK 12 AUDIO
TITLE "I Can't Stand The Rain"
PERFORMER "Cassandra Wilson"
INDEX 01 50:44:27
[свернуть]

Лог проверки качества

AUDIOCHECKER v2.0 beta (build 457) - by Dester - [Ссылки могут видеть только зарегистрированные и активированные пользователи.]
[Only registered and activated users can see links.]
~~~~~~~~~~~~~~~~~~~~~~~~~~~~~~~~~~
-=== НЕ РЕДАКТИРУЙТЕ ЭТОТ ФАЙЛ! ===-

Путь: ...\1993 - Blue Light 'Til Dawn [CDP 0777 7 81357 2 2]

1 -=- Cassandra Wilson - Blue Light 'Til Dawn.flac -=- CDDA (100%)

135044244
[свернуть]

Спектр частот

[свернуть]

Скачать Cassandra Wilson - Blue Light 'Til Dawn

[Ссылки могут видеть только зарегистрированные и активированные пользователи.]
[Only registered and activated users can see links.]

password: sergych
[свернуть]
My opinion of release: 9/10
__________________
TAIFUN.Wings of Soul

Вверх
Похожие темы
Тема Автор Раздел Ответов Последнее сообщение
Альбом Cassandra Wilson - Thunderbird sergych Jazz и Blues 0 11.11.2015 18:29
Альбом Cassandra Wilson - Belly of The Sun sergych Jazz и Blues 0 11.11.2015 17:55


Метки
1993 , blue light 'til dawn , cassandra wilson , jazz

Опции темы

Ваши права в разделе
Вы не можете создавать новые темы
Вы не можете отвечать в темах
Вы не можете прикреплять вложения
Вы не можете редактировать свои сообщения

Быстрый переход




Текущее время: 03:36. Часовой пояс GMT +3.
Powered by vBulletin® Version 3.8.10
Copyright ©2000 - 2019, vBulletin Solutions, Inc. Перевод: zCarot
© 2008 - 2019 Taifun With Song
Яндекс.Метрика