TAIFUN With Song - качественная и редкая музыка
Навигация
А знаете ли Вы, что...
Почему оркестры американских театров не исполняют национальный марш?
««Звёзды и полосы навсегда» — это самый известный патриотический марш США. Тем не менее, в американских театрах и цирках оркестр никогда не исполнит эту мелодию просто так. Она зарезервирована в качестве сигнала бедствия о чрезвычайной ситуации, например, пожаре, чтобы персонал мог начать эвакуацию зрителей без паники.»
 
Опции темы

  #1
Старый 26.02.2019, 08:45
sergych
Координатор
Досье
 
Аватар для sergych
Релиз Pat Benatar - Gravity's Rainbow


1993 - Pat Benatar - Gravity's Rainbow




Исполнитель/Artist: Pat Benatar
Альбом/Album: Gravity's Rainbow
Год/Year: 1993
Жанр/Genre: Rock, pop rock, hard rock
Страна/Country: Соединённые Штаты
Рекорд-лейбл/Record label: Chrysalis / EMI Records
Номер в каталоге/Catalogue #: 0946 3 21982 2 8
Формат/Format: Free Lossless Audio Codec (*.flac)
Качество/Quality: Lossless
Тип рипа/RIP Type: image+.cue
Продолжительность/Length: 00:45:16
Источник/Source: Собственный рип
Размер/Size: 358.5 MB

Сканы в комплекте

Треклист

01. Pictures Of A Gone World [0:00:33.22]
02. Everybody Lay Down [0:04:20.20]
03. Somebody's Baby [0:04:26.30]
04. Ties That Bind [0:03:38.43]
05. You & I [0:04:23.02]
06. Disconnected [0:03:43.03]
07. Crazy [0:04:25.32]
08. Every Time I Fall Back [0:05:02.60]
09. Sanctuary [0:03:52.48]
10. Rise {Part 2} [0:03:02.27]
11. Kingdom Key [0:04:17.53]
12. Tradin' Down [0:03:30.27]
[свернуть]

Превью на YouTube

[свернуть]

Исполнители/Performers

Pat Benatar - vocals, executive producer
Neil Giraldo - guitar, keyboards, percussion, executive producer
Frank Linx - bass, percussion
Myron Grombacher - drums, percussion

Additional musicians
Greg Piccolo - saxophone on "Crazy"
Richard Dodd - cello on "Somebody's Baby"
Donte Scher - violin on "Somebody's Baby"
[свернуть]

EAC лог

Exact Audio Copy V1.3 from 2. September 2016

EAC extraction logfile from 19. February 2019, 16:06

Pat Benatar / Gravity's Rainbow

Used drive : PIONEER DVD-RW DVR-220L Adapter: 1 ID: 0

Read mode : Secure
Utilize accurate stream : Yes
Defeat audio cache : Yes
Make use of C2 pointers : No

Read offset correction : 6
Overread into Lead-In and Lead-Out : No
Fill up missing offset samples with silence : Yes
Delete leading and trailing silent blocks : No
Null samples used in CRC calculations : Yes
Used interface : Installed external ASPI interface

Used output format : User Defined Encoder
Selected bitrate : 1024 kBit/s
Quality : High
Add ID3 tag : No
Command line compressor : C:\Program Files (x86)\Exact Audio Copy\Flac\flac.exe
Additional command line options : -6 -V -T "ARTIST=%artist%" -T "TITLE=%title%" -T "ALBUM=%albumtitle%" -T "DATE=%year%" -T "TRACKNUMBER=%tracknr%" -T "GENRE=%genre%" -T "COMMENT=%comment%" -T "BAND=%albuminterpret%" -T "ALBUMARTIST=%albuminterpret%" -T "COMPOSER=%composer%" %haslyrics%--tag-from-file=LYRICS="%lyricsfile%"%haslyrics% -T "DISCNUMBER=%cdnumber%" -T "TOTALDISCS=%totalcds%" -T "TOTALTRACKS=%numtracks%" %hascover%--picture="%coverfile%"%hascover% %source% -o %dest%


TOC of the extracted CD

Track | Start | Length | Start sector | End sector
---------------------------------------------------------
1 | 0:00.00 | 0:33.22 | 0 | 2496
2 | 0:33.22 | 4:20.20 | 2497 | 22016
3 | 4:53.42 | 4:26.30 | 22017 | 41996
4 | 9:19.72 | 3:38.43 | 41997 | 58389
5 | 12:58.40 | 4:23.02 | 58390 | 78116
6 | 17:21.42 | 3:43.03 | 78117 | 94844
7 | 21:04.45 | 4:25.32 | 94845 | 114751
8 | 25:30.02 | 5:02.60 | 114752 | 137461
9 | 30:32.62 | 3:52.48 | 137462 | 154909
10 | 34:25.35 | 3:02.27 | 154910 | 168586
11 | 37:27.62 | 4:17.53 | 168587 | 187914
12 | 41:45.40 | 3:30.27 | 187915 | 203691


Range status and errors

Selected range

Filename C:\mm\Pat Benatar\1993 - Gravity's Rainbow [0946 3 21982 2 8]\Pat Benatar - Gravity's Rainbow.wav

Peak level 100.0 %
Extraction speed 7.0 X
Range quality 100.0 %
Test CRC D163F9D9
Copy CRC D163F9D9
Copy OK

No errors occurred


AccurateRip summary

Track 1 accurately ripped (confidence 52) [026C567E] (AR v2)
Track 2 accurately ripped (confidence 52) [564929E4] (AR v2)
Track 3 accurately ripped (confidence 52) [70FC8734] (AR v2)
Track 4 accurately ripped (confidence 52) [0BC235FE] (AR v2)
Track 5 accurately ripped (confidence 52) [F3D8C3F1] (AR v2)
Track 6 accurately ripped (confidence 52) [A79C54C3] (AR v2)
Track 7 accurately ripped (confidence 52) [0213D3E6] (AR v2)
Track 8 accurately ripped (confidence 52) [E029E883] (AR v2)
Track 9 accurately ripped (confidence 51) [D89A2957] (AR v2)
Track 10 accurately ripped (confidence 51) [A3B0A690] (AR v2)
Track 11 accurately ripped (confidence 51) [2B196D44] (AR v2)
Track 12 accurately ripped (confidence 51) [54DB80CB] (AR v2)

All tracks accurately ripped

End of status report
[свернуть]

Файл CUE

REM GENRE Rock
REM DATE 1993
REM DISCID 950A9B0C
REM COMMENT "ExactAudioCopy v1.3"
PERFORMER "Pat Benatar"
TITLE "Gravity's Rainbow"
REM COMPOSER ""
FILE "Pat Benatar - Gravity's Rainbow.flac" WAVE
TRACK 01 AUDIO
TITLE "Pictures Of A Gone World"
PERFORMER "Pat Benatar"
REM COMPOSER ""
INDEX 01 00:00:00
TRACK 02 AUDIO
TITLE "Everybody Lay Down"
PERFORMER "Pat Benatar"
REM COMPOSER ""
INDEX 01 00:33:22
TRACK 03 AUDIO
TITLE "Somebody's Baby"
PERFORMER "Pat Benatar"
REM COMPOSER ""
INDEX 00 04:53:32
INDEX 01 04:53:42
TRACK 04 AUDIO
TITLE "Ties That Bind"
PERFORMER "Pat Benatar"
REM COMPOSER ""
INDEX 00 09:18:70
INDEX 01 09:19:72
TRACK 05 AUDIO
TITLE "You & I"
PERFORMER "Pat Benatar"
REM COMPOSER ""
INDEX 00 12:57:65
INDEX 01 12:58:40
TRACK 06 AUDIO
TITLE "Disconnected"
PERFORMER "Pat Benatar"
REM COMPOSER ""
INDEX 01 17:21:42
TRACK 07 AUDIO
TITLE "Crazy"
PERFORMER "Pat Benatar"
REM COMPOSER ""
INDEX 00 21:04:30
INDEX 01 21:04:45
TRACK 08 AUDIO
TITLE "Every Time I Fall Back"
PERFORMER "Pat Benatar"
REM COMPOSER ""
INDEX 00 25:29:62
INDEX 01 25:30:02
TRACK 09 AUDIO
TITLE "Sanctuary"
PERFORMER "Pat Benatar"
REM COMPOSER ""
INDEX 01 30:32:62
TRACK 10 AUDIO
TITLE "Rise {Part 2}"
PERFORMER "Pat Benatar"
REM COMPOSER ""
INDEX 01 34:25:35
TRACK 11 AUDIO
TITLE "Kingdom Key"
PERFORMER "Pat Benatar"
REM COMPOSER ""
INDEX 01 37:27:62
TRACK 12 AUDIO
TITLE "Tradin' Down"
PERFORMER "Pat Benatar"
REM COMPOSER ""
INDEX 01 41:45:40
[свернуть]

Лог проверки качества

AUDIOCHECKER v2.0 beta (build 457) - by Dester - [Ссылки могут видеть только зарегистрированные и активированные пользователи.]
[Only registered and activated users can see links.]
~~~~~~~~~~~~~~~~~~~~~~~~~~~~~~~~~~
-=== НЕ РЕДАКТИРУЙТЕ ЭТОТ ФАЙЛ! ===-

Путь: ...\1993 - Gravity's Rainbow [0946 3 21982 2 8]

1 -=- Pat Benatar - Gravity's Rainbow.flac -=- CDDA (100%)

212393348
[свернуть]

Спектр частот

[свернуть]

Скачать Pat Benatar - Gravity's Rainbow

[Ссылки могут видеть только зарегистрированные и активированные пользователи.]
[Only registered and activated users can see links.]

password: sergych
[свернуть]

Контрольная сумма (хеш-сумма) архива

MD5: d530d30d86572e5a8b1b7f2163a26ebb
[свернуть]
My opinion of release: 8/10
__________________
TAIFUN.Wings of Soul


Последний раз редактировалось sergych, 28.02.2019 в 11:45. Причина: добавлена предпрослушка
Вверх
4 пользователя(ей) сказали cпасибо:
Lighting1981 (26.02.2019), swint68 (27.02.2019), TAIFUN (26.02.2019), Павел1 (16.03.2019)
Похожие темы
Тема Автор Раздел Ответов Последнее сообщение
Релиз Westlife - Gravity PUPOKIN Зарубежная Поп-Музыка 0 21.11.2010 13:24
Релиз Rivethead - Zero Gravity PUPOKIN Industrial Metal 0 10.12.2009 10:05
Альбом Rainbow - Rainbow On Stage Stanislav1989 Hard Rock 0 13.10.2009 16:03
Альбом Rainbow - Rainbow Rising Stanislav1989 Hard Rock 0 12.10.2009 09:37
Альбом Rainbow - Ritchie Blackmore's Rainbow Stanislav1989 Hard Rock 0 11.10.2009 19:45


Метки
1993 , gravity's rainbow , hard rock , pat benatar , pop rock , rock

Опции темы

Ваши права в разделе
Вы не можете создавать новые темы
Вы не можете отвечать в темах
Вы не можете прикреплять вложения
Вы не можете редактировать свои сообщения

Быстрый переход



Текущее время: 09:20. Часовой пояс GMT +3.
Powered by vBulletin® Version 3.8.10
Copyright ©2000 - 2019, vBulletin Solutions, Inc. Перевод: zCarot
© 2008 - 2019 Taifun With Song
Яндекс.Метрика