TAIFUN With Song - качественная и редкая музыка
Навигация
Instrumental Релизы. Инструментальная музыка.

А знаете ли Вы, что...
Какой альбом признан самым дорогим в истории музыки?
«Хип-хоп группа Wu-Tang Clan выпустила двойной альбом «Once Upon a Time in Shaolin» тиражом всего в одну копию. Диск был продан на аукционе за несколько миллионов долларов предпринимателю Мартину Шкрели, и его официально признали самым дорогим альбомом в истории. По условиям сделки, покупатель не сможет извлечь коммерческую выгоду от приобретения до 2103 года, но имеет право распространить треки бесплатно или устроить сессию прослушивания.»
 
Опции темы

  #1
Старый 18.02.2019, 17:47
sergych
Координатор
Досье
 
Аватар для sergych
Релиз Mike Oldfield - Music of the Spheres


2008 - Mike Oldfield - Music of the Spheres




Исполнитель/Artist: Mike Oldfield
Альбом/Album: Music of the Spheres
Год/Year: 2008
Жанр/Genre: Classical, new-age
Страна/Country: Германия
Рекорд-лейбл/Record label: Universal Music
Номер в каталоге/Catalogue #: 1749051
Формат/Format: Free Lossless Audio Codec (*.flac)
Качество/Quality: Lossless
Тип рипа/RIP Type: image+.cue
Продолжительность/Length: 00:45:29
Источник/Source: Собственный рип
Размер/Size: 233.6 MB

Сканы в комплекте

Треклист

01. Harbinger [0:04:08.45]
02. Animus [0:03:09.04]
03. Silhouette [0:03:19.45]
04. Shabda [0:03:56.71]
05. The Tempest [0:05:48.19]
06. Harbinger Reprise [0:01:30.68]
07. On My Heart [0:02:26.12]
08. Aurora [0:03:42.21]
09. Prophecy [0:02:54.55]
10. On My Heart Reprise [0:01:16.24]
11. Harmonia Mundi [0:03:46.10]
12. The Other Side [0:01:28.12]
13. Empyrean [0:01:37.17]
14. Musica Universalis [0:06:24.49]
[свернуть]

Превью на YouTube

[свернуть]

Исполнители/Performers

Mike Oldfield – Classical guitar, producer and mixer
Hayley Westenra – vocals
Lang Lang – piano on tracks 1, 2, 3, 5, 6 and 9.
Karl Jenkins – orchestrations, conductor and producer
Sinfonia Sfera Orchestra:
Choir: Mary Carewe, Jacqueline Barron, Nicole Tibbels, Mae McKenna, Heather Cairncross, Sarah Eyden
1st Violins: Richard Studt (leader), Judith Temppleman, Tom Piggott-Smith, Harriott McKenzie, Tristan Gurney, Jemma McCrisken, Amy Cardigan, Joanna McWeeney, Gillon Cameron, Louisa Adridge, Kotono Sato, Jeremy Morris, Miriam Teppich, Vladimir Naumov
2nd Violins: Peter Camble-Kelly, Emma Parker, Sophie Appleton, Jenny Chang, Holly Maleham, David Lyon, Nicholas Levy, Joanna Watts, Lucy Hartley, Jo West, Sarah Carter, Elizabeth Neil
Violas: John Thorn, Rachel Robson, Edward Vanderspar, Emma Owens, Vincent Green, Olly Burton, Rachel Dyker, Sarah Chapman, Fay Sweet, Holly Butler
Cellos: Sally Pendlebury, Jonny Byers, Chris Worsey, Verity Harding, Chris Fish, Lucy Payne, Morwenna Del Mar, Ben Trigg
Basses: Sian Hicks, Hugh Sparrow, Jeremy Watt, Kylie Davis, Frances Casey, Ben Griffiths
Flutes: Gareth Davies, Juliette Bausor
Oboes: Roy Carter, Rosie Jenkins
Clarinets: Chris Richards, Nick Ellis
Bassoon: Steven Reay, Louise Chapman
Horns: Peter Francomb, Dave Tollington, Joe Walters, Evgeny Chebykin
Trumpets: Gareth Small, Edward Pascal, Tom Watson
Trombone: Simon Willis, James Adams
Bass Trombone: Rob Collinson
Tuba: Alex Kidston
Timpani: Steve Henderson
Percussion: Gary Kettel, Paul Clarvis, Sam Walton, Neil Percy
[свернуть]

EAC лог

Exact Audio Copy V1.3 from 2. September 2016

EAC extraction logfile from 16. February 2019, 14:08

Mike Oldfield / Music of the Spheres

Used drive : PIONEER DVD-RW DVR-220L Adapter: 1 ID: 0

Read mode : Secure
Utilize accurate stream : Yes
Defeat audio cache : Yes
Make use of C2 pointers : No

Read offset correction : 6
Overread into Lead-In and Lead-Out : No
Fill up missing offset samples with silence : Yes
Delete leading and trailing silent blocks : No
Null samples used in CRC calculations : Yes
Used interface : Installed external ASPI interface

Used output format : User Defined Encoder
Selected bitrate : 1024 kBit/s
Quality : High
Add ID3 tag : No
Command line compressor : C:\Program Files (x86)\Exact Audio Copy\Flac\flac.exe
Additional command line options : -6 -V -T "ARTIST=%artist%" -T "TITLE=%title%" -T "ALBUM=%albumtitle%" -T "DATE=%year%" -T "TRACKNUMBER=%tracknr%" -T "GENRE=%genre%" -T "COMMENT=%comment%" -T "BAND=%albuminterpret%" -T "ALBUMARTIST=%albuminterpret%" -T "COMPOSER=%composer%" %haslyrics%--tag-from-file=LYRICS="%lyricsfile%"%haslyrics% -T "DISCNUMBER=%cdnumber%" -T "TOTALDISCS=%totalcds%" -T "TOTALTRACKS=%numtracks%" %hascover%--picture="%coverfile%"%hascover% %source% -o %dest%


TOC of the extracted CD

Track | Start | Length | Start sector | End sector
---------------------------------------------------------
1 | 0:00.13 | 4:08.45 | 13 | 18657
2 | 4:08.58 | 3:09.04 | 18658 | 32836
3 | 7:17.62 | 3:19.45 | 32837 | 47806
4 | 10:37.32 | 3:56.71 | 47807 | 65577
5 | 14:34.28 | 5:48.19 | 65578 | 91696
6 | 20:22.47 | 1:30.68 | 91697 | 98514
7 | 21:53.40 | 2:26.12 | 98515 | 109476
8 | 24:19.52 | 3:42.21 | 109477 | 126147
9 | 28:01.73 | 2:54.55 | 126148 | 139252
10 | 30:56.53 | 1:16.24 | 139253 | 144976
11 | 32:13.02 | 3:46.10 | 144977 | 161936
12 | 35:59.12 | 1:28.12 | 161937 | 168548
13 | 37:27.24 | 1:37.17 | 168549 | 175840
14 | 39:04.41 | 6:24.49 | 175841 | 204689


Range status and errors

Selected range

Filename C:\mm\Mike Oldfield\2008 - Music Of The Spheres [1749051]\Mike Oldfield - Music of the Spheres.wav

Peak level 100.0 %
Extraction speed 7.5 X
Range quality 100.0 %
Test CRC C63A9C6A
Copy CRC C63A9C6A
Copy OK

No errors occurred


AccurateRip summary

Track 1 cannot be verified as accurate (confidence 200) [4214635F], AccurateRip returned [99F54B7C] (AR v2)
Track 2 cannot be verified as accurate (confidence 200) [6BB79DB2], AccurateRip returned [64E7DDEF] (AR v2)
Track 3 cannot be verified as accurate (confidence 200) [7446EF0E], AccurateRip returned [E08E2B26] (AR v2)
Track 4 cannot be verified as accurate (confidence 200) [F9325F6E], AccurateRip returned [89BFCCB2] (AR v2)
Track 5 cannot be verified as accurate (confidence 200) [1346180B], AccurateRip returned [DB54E88C] (AR v2)
Track 6 cannot be verified as accurate (confidence 200) [838B0F38], AccurateRip returned [BD7D4707] (AR v2)
Track 7 cannot be verified as accurate (confidence 200) [FDEA1048], AccurateRip returned [DEC7FC67] (AR v2)
Track 8 cannot be verified as accurate (confidence 200) [8F7F45C9], AccurateRip returned [08411EAD] (AR v2)
Track 9 cannot be verified as accurate (confidence 200) [A6BD03EE], AccurateRip returned [45651752] (AR v2)
Track 10 cannot be verified as accurate (confidence 200) [7A03C79D], AccurateRip returned [FAD176BC] (AR v2)
Track 11 cannot be verified as accurate (confidence 200) [33EAC088], AccurateRip returned [C338D00E] (AR v2)
Track 12 cannot be verified as accurate (confidence 200) [ACE78FB6], AccurateRip returned [A3D035B3] (AR v2)
Track 13 cannot be verified as accurate (confidence 200) [FD0A088A], AccurateRip returned [E9AAAA9F] (AR v2)
Track 14 cannot be verified as accurate (confidence 200) [B2848EA3], AccurateRip returned [4C884FF4] (AR v2)

No tracks could be verified as accurate
You may have a different pressing from the one(s) in the database

End of status report
[свернуть]

Файл CUE

REM GENRE Classical
REM DATE 2008
REM DISCID C30AA90E
REM COMMENT "ExactAudioCopy v1.3"
PERFORMER "Mike Oldfield"
TITLE "Music of the Spheres"
REM COMPOSER ""
FILE "Mike Oldfield - Music of the Spheres.flac" WAVE
TRACK 01 AUDIO
TITLE "Harbinger"
PERFORMER "Mike Oldfield"
REM COMPOSER ""
INDEX 00 00:00:00
INDEX 01 00:00:13
TRACK 02 AUDIO
TITLE "Animus"
PERFORMER "Mike Oldfield"
REM COMPOSER ""
INDEX 01 04:08:58
TRACK 03 AUDIO
TITLE "Silhouette"
PERFORMER "Mike Oldfield"
REM COMPOSER ""
INDEX 01 07:17:62
TRACK 04 AUDIO
TITLE "Shabda"
PERFORMER "Mike Oldfield"
REM COMPOSER ""
INDEX 01 10:37:32
TRACK 05 AUDIO
TITLE "The Tempest"
PERFORMER "Mike Oldfield"
REM COMPOSER ""
INDEX 01 14:34:28
TRACK 06 AUDIO
TITLE "Harbinger Reprise"
PERFORMER "Mike Oldfield"
REM COMPOSER ""
INDEX 01 20:22:47
TRACK 07 AUDIO
TITLE "On My Heart"
PERFORMER "Mike Oldfield"
REM COMPOSER ""
INDEX 01 21:53:40
TRACK 08 AUDIO
TITLE "Aurora"
PERFORMER "Mike Oldfield"
REM COMPOSER ""
INDEX 01 24:19:52
TRACK 09 AUDIO
TITLE "Prophecy"
PERFORMER "Mike Oldfield"
REM COMPOSER ""
INDEX 01 28:01:73
TRACK 10 AUDIO
TITLE "On My Heart Reprise"
PERFORMER "Mike Oldfield"
REM COMPOSER ""
INDEX 01 30:56:53
TRACK 11 AUDIO
TITLE "Harmonia Mundi"
PERFORMER "Mike Oldfield"
REM COMPOSER ""
INDEX 01 32:13:02
TRACK 12 AUDIO
TITLE "The Other Side"
PERFORMER "Mike Oldfield"
REM COMPOSER ""
INDEX 01 35:59:12
TRACK 13 AUDIO
TITLE "Empyrean"
PERFORMER "Mike Oldfield"
REM COMPOSER ""
INDEX 01 37:27:24
TRACK 14 AUDIO
TITLE "Musica Universalis"
PERFORMER "Mike Oldfield"
REM COMPOSER ""
INDEX 01 39:04:41
[свернуть]

Лог проверки качества

AUDIOCHECKER v2.0 beta (build 457) - by Dester - [Ссылки могут видеть только зарегистрированные и активированные пользователи.]
[Only registered and activated users can see links.]
~~~~~~~~~~~~~~~~~~~~~~~~~~~~~~~~~~
-=== НЕ РЕДАКТИРУЙТЕ ЭТОТ ФАЙЛ! ===-

Путь: ...\2008 - Music Of The Spheres [1749051]

1 -=- Mike Oldfield - Music of the Spheres.flac -=- ERROR

126883428
[свернуть]

Спектр частот

[свернуть]

Скачать Mike Oldfield - Music of the Spheres

[Ссылки могут видеть только зарегистрированные и активированные пользователи.]
[Only registered and activated users can see links.]

password: sergych
[свернуть]

Контрольная сумма (хеш-сумма) архива

MD5: 5dd792f5b6076d83faf71b15a5d5e94f
[свернуть]
My opinion of release: 8/10


Последний раз редактировалось sergych, 28.02.2019 в 11:48. Причина: добавлена предпрослушка
Вверх
4 пользователя(ей) сказали cпасибо:
Guilli (23.02.2019), Lighting1981 (26.02.2019), swint68 (27.02.2019), TAIFUN (20.02.2019)
Похожие темы
Тема Автор Раздел Ответов Последнее сообщение
Альбом Mike Oldfield - Guitars PUPOKIN New age 0 19.11.2009 10:44
Альбом Mike Oldfield - Elements PUPOKIN New age 0 27.10.2009 11:13
Mike Oldfield МУЗЫКА Видеоклипы 1 22.09.2008 18:37
Mike Oldfield - The Songs Of Distant Earth Alex_vn69 Electro 0 30.04.2008 23:36


Метки
2008 , classical , mike oldfield , music of the spheres , new-age

Опции темы

Ваши права в разделе
Вы не можете создавать новые темы
Вы не можете отвечать в темах
Вы не можете прикреплять вложения
Вы не можете редактировать свои сообщения

Быстрый переход



Текущее время: 09:19. Часовой пояс GMT +3.
Powered by vBulletin® Version 3.8.10
Copyright ©2000 - 2019, vBulletin Solutions, Inc. Перевод: zCarot
© 2008 - 2019 Taifun With Song
Яндекс.Метрика