TAIFUN With Song - качественная и редкая музыка
Навигация
А знаете ли Вы, что...
Где собачий вальс зовут ослиным маршем, а где — кошачьей полькой?
«Собачий вальс в разных странах называется по-разному. В Германии, Бельгии, Нидерландах — блошиный вальс. В Болгарии — кошачий марш, а в Финляндии — кошачья полька. В Венгрии — ослиный марш, а во Франции его почему-то называют отбивной котлетой.»
 
Опции темы

  #1
Старый 06.01.2014, 20:05
sergych
Координатор
Досье
 
Аватар для sergych
FLAC Eurythmics - Peace


1999 - Eurythmics - Peace




Исполнитель/Artist: Eurythmics
Альбом/Album: Peace
Год/Year: 1999
Жанр/Genre: Pop rock, adult contemporary
Страна/Country: Соединённые Штаты
Рекорд-лейбл/Record label: Arista
Номер в каталоге/Catalogue #: 07822-14617-2
Формат/Format: Free Lossless Audio Codec (*.flac)
Качество/Quality: Lossless
Тип рипа/RIP Type: image+.cue



Продолжительность/Length: 00:49:03
Источник/Source: Собственный рип
Размер/Size: 419.8 MB

Сканы в комплекте

Треклист

01. 17 Again [0:04:55.27]
02. I Saved the World Today [0:04:53.33]
03. Power to the Meek [0:03:18.05]
04. Beautiful Child [0:03:27.52]
05. Anything but Strong [0:05:04.55]
06. Peace Is Just a Word [0:05:51.15]
07. I've Tried Everything [0:04:17.58]
08. I Want It All [0:03:31.62]
09. My True Love [0:04:45.20]
10. Forever [0:04:08.53]
11. Lifted [0:04:49.32]
[свернуть]

youtube.com

[свернуть]

Исполнители/Performers

Annie Lennox – vocals
Dave Stewart – guitar, vocals

Additional personnel:
Dave Catlin-Birch – bass
Peter Lewinson – drums
Steve Lewinson – drums
Chucho Merchán – bass
Pro Arte Orchestra of London – orchestra
Chris Sharrock – drums
David Whitaker – strings orchestrator
Andy Wright – keyboards, percussion
[свернуть]

EAC лог

Exact Audio Copy V1.0 beta 3 from 29. August 2011

EAC extraction logfile from 6. January 2014, 21:43

Eurythmics / Peace

Used drive : ATAPI iHAS124 D Adapter: 0 ID: 2

Read mode : Secure
Utilize accurate stream : Yes
Defeat audio cache : Yes
Make use of C2 pointers : Yes

Read offset correction : 6
Overread into Lead-In and Lead-Out : No
Fill up missing offset samples with silence : Yes
Delete leading and trailing silent blocks : No
Null samples used in CRC calculations : Yes
Used interface : Installed external ASPI interface

Used output format : User Defined Encoder
Selected bitrate : 1024 kBit/s
Quality : High
Add ID3 tag : No
Command line compressor : C:\Program Files (x86)\Exact Audio Copy\Flac\flac.exe
Additional command line options : -6 -V -T "ARTIST=%artist%" -T "TITLE=%title%" -T "ALBUM=%albumtitle%" -T "DATE=%year%" -T "TRACKNUMBER=%tracknr%" -T "GENRE=%genre%" -T "COMMENT=%comment%" -T "BAND=%albuminterpret%" -T "COMPOSER=%composer%" %haslyrics%--tag-from-file=LYRICS="%lyricsfile%"%haslyrics% -T "DISCNUMBER=%cdnumber%" -T "TOTALDISCS=%totalcds%" -T "TOTALTRACKS=%numtracks%" %hascover%--picture="%coverfile%"%hascover% %source% -o %dest%


TOC of the extracted CD

Track | Start | Length | Start sector | End sector
---------------------------------------------------------
1 | 0:00.00 | 4:55.27 | 0 | 22151
2 | 4:55.27 | 4:53.33 | 22152 | 44159
3 | 9:48.60 | 3:18.05 | 44160 | 59014
4 | 13:06.65 | 3:27.52 | 59015 | 74591
5 | 16:34.42 | 5:04.55 | 74592 | 97446
6 | 21:39.22 | 5:51.15 | 97447 | 123786
7 | 27:30.37 | 4:17.58 | 123787 | 143119
8 | 31:48.20 | 3:31.62 | 143120 | 159006
9 | 35:20.07 | 4:45.20 | 159007 | 180401
10 | 40:05.27 | 4:08.53 | 180402 | 199054
11 | 44:14.05 | 4:49.32 | 199055 | 220761


Range status and errors

Selected range

Filename C:\mm\Eurythmics\1999 - Peace\Eurythmics - Peace.wav

Peak level 99.9 %
Extraction speed 13.7 X
Range quality 100.0 %
Test CRC 8C04BE6B
Copy CRC 8C04BE6B
Copy OK

No errors occurred


AccurateRip summary

Track 1 accurately ripped (confidence 7) [966053B6] (AR v2)
Track 2 accurately ripped (confidence 7) [5B39BA42] (AR v2)
Track 3 accurately ripped (confidence 7) [455111FE] (AR v2)
Track 4 accurately ripped (confidence 7) [934BAA8F] (AR v2)
Track 5 accurately ripped (confidence 7) [97DA741B] (AR v2)
Track 6 accurately ripped (confidence 7) [3EE4032F] (AR v2)
Track 7 accurately ripped (confidence 7) [47102FD7] (AR v2)
Track 8 accurately ripped (confidence 7) [C94F6D73] (AR v2)
Track 9 accurately ripped (confidence 7) [C1F65676] (AR v2)
Track 10 accurately ripped (confidence 7) [99EF562B] (AR v2)
Track 11 accurately ripped (confidence 7) [263F80DF] (AR v2)

All tracks accurately ripped

End of status report
[свернуть]

Файл CUE

REM DATE 1999
REM DISCID 960B7F0B
REM COMMENT "ExactAudioCopy v1.0b3"
PERFORMER "Eurythmics"
TITLE "Peace"
FILE "Eurythmics - Peace.flac" WAVE
TRACK 01 AUDIO
TITLE "17 Again"
PERFORMER "Eurythmics"
INDEX 01 00:00:00
TRACK 02 AUDIO
TITLE "I Saved the World Today"
PERFORMER "Eurythmics"
INDEX 01 04:55:27
TRACK 03 AUDIO
TITLE "Power to the Meek"
PERFORMER "Eurythmics"
INDEX 01 09:48:60
TRACK 04 AUDIO
TITLE "Beautiful Child"
PERFORMER "Eurythmics"
INDEX 01 13:06:65
TRACK 05 AUDIO
TITLE "Anything but Strong"
PERFORMER "Eurythmics"
INDEX 01 16:34:42
TRACK 06 AUDIO
TITLE "Peace Is Just a Word"
PERFORMER "Eurythmics"
INDEX 01 21:39:22
TRACK 07 AUDIO
TITLE "I've Tried Everything"
PERFORMER "Eurythmics"
INDEX 01 27:30:37
TRACK 08 AUDIO
TITLE "I Want It All"
PERFORMER "Eurythmics"
INDEX 01 31:48:20
TRACK 09 AUDIO
TITLE "My True Love"
PERFORMER "Eurythmics"
INDEX 01 35:20:07
TRACK 10 AUDIO
TITLE "Forever"
PERFORMER "Eurythmics"
INDEX 01 40:05:27
TRACK 11 AUDIO
TITLE "Lifted"
PERFORMER "Eurythmics"
INDEX 01 44:14:05
[свернуть]

Лог проверки качества

AUDIOCHECKER v2.0 beta (build 457) - by Dester - [Ссылки могут видеть только зарегистрированные и активированные пользователи.]
[Only registered and activated users can see links.]
~~~~~~~~~~~~~~~~~~~~~~~~~~~~~~~~~~
-=== НЕ РЕДАКТИРУЙТЕ ЭТОТ ФАЙЛ! ===-

Путь: ...\1999 - Peace

1 -=- Eurythmics - Peace.flac -=- CDDA (100%)

177668004
[свернуть]

Спектр частот

[свернуть]

Скачать Eurythmics - Peace

[Ссылки могут видеть только зарегистрированные и активированные пользователи.]
[Only registered and activated users can see links.]

password: sergych
[свернуть]
My rating to this release: 10/10
__________________
TAIFUN.Wings of Soul

sergych вне форума  
Вверх
3 пользователя(ей) сказали cпасибо:
Serg026 (09.11.2015), swint68 (05.02.2024), turmalin (31.12.2023)
 
  #2
Старый 31.12.2023, 15:43
turmalin
Пользователь
Досье
 
Аватар для turmalin
По умолчанию Re: Eurythmics - Peace

Спасибо. Скачаю. Слышал как то его, мне интересно.

turmalin вне форума  
Вверх
Пользователь сказал cпасибо:
swint68 (04.01.2024)
  #3
Старый 17.02.2024, 12:41
Serge987
Меломан
Досье
 
Аватар для Serge987
По умолчанию Re: Eurythmics - Peace

Спасибо за флак!

Serge987 вне форума  
Вверх
Похожие темы
Тема Автор Раздел Ответов Последнее сообщение
Релиз Anders Osborne - Peace PUPOKIN Blues Rock 0 08.10.2013 08:46
Релиз Mob Rules - Radical Peace PUPOKIN Power Metal 0 16.11.2009 11:41
Энни Леннокс навсегда отказалась от возрождения Eurythmics PUPOKIN Новости в мире музыки 0 06.03.2009 23:22
Альбом Yo-Yo Ma & Friends - Songs of Joy & Peace PUPOKIN Classical 0 25.12.2008 10:20
Альбом Eurythmics - Touch sergych Зарубежная Поп-Музыка 0 10.12.2008 18:35


Метки
1999 , adult contemporary , annie lennox , dave stewart , eurythmics , peace , pop rock

Опции темы

Ваши права в разделе
Вы не можете создавать новые темы
Вы не можете отвечать в темах
Вы не можете прикреплять вложения
Вы не можете редактировать свои сообщения

Быстрый переход


Текущее время: 14:36. Часовой пояс GMT +3.

©2008 - 2024 Taifun With Song
Powered by vBulletin® Version 3.8.10
Copyright ©2000 - 2024, vBulletin Solutions, Inc. Перевод: zCarot
При поддержке NIC.UA
0.35684 сек. | MySQL: 17