TAIFUN With Song - качественная и редкая музыка
Навигация
Hard Rock То, что может восприниматься слушателем как «тяжесть» в хард-роке, достигается, в частности, за счет специфического звучания электрогитары (с такими эффектами, как например, дисторшн и овердрайв) и работы ритм-секции. «Классический» хард-рок обрёл формы в конце 1960-х — начале 1970-х годов в Великобритании. Классический хард-рок отличается от хеви-металла более мелодичным звучанием.

А знаете ли Вы, что...
Кто написал песню «Во поле берёза стояла»?
«Многие источники утверждают, что песню «Во поле берёза стояла» написал татарский поэт Нигмат Ибрагимов. Однако эта песня всё-таки является русской народной.»
 
Опции темы

  #1
Старый 04.01.2020, 10:04
swint68
Релизёр
Досье
 
Аватар для swint68
FLAC Deep Purple - Machine Head


1972 - Deep Purple - Machine Head



[Ссылки могут видеть только зарегистрированные и активированные пользователи.]
[Only registered and activated users can see links.]

Исполнитель/Artist: Deep Purple
Альбом/Album: Machine Head
Год/Year: 1972
Ремастеринг/Remaster: 1987
Жанр/Genre: Hard Rock, Classic Rock
Страна/Country: Япония
Рекорд-лейбл/Record label: Warner Bros. Records
Номер в каталоге/Catalogue #: 32XD-564
Формат/Format: Free Lossless Audio Codec (*.flac)
Качество/Quality: Lossless
Тип рипа/RIP Type: image+.cue
Продолжительность/Length: 00:37:48
Источник/Source: из интернета
Размер/Size: 287 MB

Сканы в комплекте

Треклист

01. Deep Purple - Highway Star [6:09]
02. Deep Purple - Maybe I'm A Leo [4:52]
03. Deep Purple - Pictures Of Home [5:07]
04. Deep Purple - Never Before [4:00]
05. Deep Purple - Smoke On The Water [5:42]
06. Deep Purple - Lazy [7:23]
07. Deep Purple - Space Truckin' [4:35]
[свернуть]

Превью на YouTube

[свернуть]

EAC лог

Exact Audio Copy V1.0 beta 3 from 29. August 2011

EAC extraction logfile from 13. January 2014, 21:03

Deep Purple / Machine Head (Japan 32XD-564) [1st Pressing]

Used drive : SONY BD RW BDX-S600U Adapter: 2 ID: 1

Read mode : Secure
Utilize accurate stream : Yes
Defeat audio cache : Yes
Make use of C2 pointers : No

Read offset correction : 48
Overread into Lead-In and Lead-Out : No
Fill up missing offset samples with silence : Yes
Delete leading and trailing silent blocks : No
Null samples used in CRC calculations : Yes
Used interface : Native Win32 interface for Win NT & 2000

Used output format : User Defined Encoder
Selected bitrate : 128 kBit/s
Quality : High
Add ID3 tag : No
Command line compressor : C:\Program Files (x86)\Exact Audio Copy\Flac\flac.exe
Additional command line options : -V -8 -T "Date=%year%" -T "Genre=%genre%" %source%


TOC of the extracted CD

Track | Start | Length | Start sector | End sector
---------------------------------------------------------
1 | 0:00.00 | 6:08.50 | 0 | 27649
2 | 6:08.50 | 4:52.25 | 27650 | 49574
3 | 11:01.00 | 5:07.17 | 49575 | 72616
4 | 16:08.17 | 4:00.35 | 72617 | 90651
5 | 20:08.52 | 5:42.08 | 90652 | 116309
6 | 25:50.60 | 7:22.42 | 116310 | 149501
7 | 33:13.27 | 4:34.48 | 149502 | 170099


Range status and errors

Selected range

Filename F:\music\1970. Deep Purple - Machine Head (Warner-Pioner Corp., 32XD-564,Japan)\Deep Purple - Machine Head (Japan 32XD-564) [1st Pressing].wav

Peak level 95.9 %
Extraction speed 6.1 X
Range quality 100.0 %
Test CRC 128945BD
Copy CRC 128945BD
Copy OK

No errors occurred


AccurateRip summary

Track 1 accurately ripped (confidence 4) [5F7B0995] (AR v2)
Track 2 accurately ripped (confidence 4) [AF9543B6] (AR v2)
Track 3 accurately ripped (confidence 4) [6DC5FC15] (AR v2)
Track 4 accurately ripped (confidence 4) [013A81A7] (AR v2)
Track 5 accurately ripped (confidence 4) [123A6953] (AR v2)
Track 6 accurately ripped (confidence 4) [D484B3DC] (AR v2)
Track 7 accurately ripped (confidence 4) [F1A9177E] (AR v2)

All tracks accurately ripped

End of status report

---- CUETools DB Plugin V2.1.3

[CTDB TOCID: Q9gLiJADycutqeaA3UnqJmU3jS8-] found, Submit result: Q9gLiJADycutqeaA3UnqJmU3jS8- has been confirmed
[1888e301] (18/18) Accurately ripped


==== Log checksum FD6C09AEF4F28FF75414BC2BC4B94337E87D050DFE066EAE0BEB5ACECC747CCB ====
[свернуть]

Файл CUE

REM GENRE "Hard Rock"
REM DATE 1972
REM DISCID 5408DC07
REM COMMENT "ExactAudioCopy v1.0b3"
PERFORMER "Deep Purple"
TITLE "Machine Head (Japan 32XD-564) [1st Pressing]"
FILE "Deep Purple - Machine Head (Japan 32XD-564) [1st Pressing].flac" WAVE
TRACK 01 AUDIO
TITLE "Highway Star"
PERFORMER "Deep Purple"
INDEX 01 00:00:00
TRACK 02 AUDIO
TITLE "Maybe I'm A Leo"
PERFORMER "Deep Purple"
INDEX 00 06:07:27
INDEX 01 06:08:50
TRACK 03 AUDIO
TITLE "Pictures Of Home"
PERFORMER "Deep Purple"
INDEX 00 10:59:52
INDEX 01 11:01:00
TRACK 04 AUDIO
TITLE "Never Before"
PERFORMER "Deep Purple"
INDEX 00 16:07:17
INDEX 01 16:08:17
TRACK 05 AUDIO
TITLE "Smoke On The Water"
PERFORMER "Deep Purple"
INDEX 00 20:07:62
INDEX 01 20:08:52
TRACK 06 AUDIO
TITLE "Lazy"
PERFORMER "Deep Purple"
INDEX 00 25:49:67
INDEX 01 25:50:60
TRACK 07 AUDIO
TITLE "Space Truckin'"
PERFORMER "Deep Purple"
INDEX 00 33:13:07
INDEX 01 33:13:27
[свернуть]

Лог проверки качества

AUDIOCHECKER v2.0 beta (build 457) - by Dester - [Ссылки могут видеть только зарегистрированные и активированные пользователи.]
[Only registered and activated users can see links.]
~~~~~~~~~~~~~~~~~~~~~~~~~~~~~~~~~~
-=== НЕ РЕДАКТИРУЙТЕ ЭТОТ ФАЙЛ! ===-

Путь: ...\1972 - Machine Head [Japan 1987]

1 -=- Deep Purple - Machine Head (Japan 32XD-564) [1st Pressing].flac -=- CDDA (99%)

150735444
===============
-----------------------

DON'T MODIFY THIS FILE

-----------------------

PERFORMER: auCDtect Task Manager, ver. 1.6.0 RC1 build 1.6.0.1
Copyright © 2008-2010 y-soft. All rights reserved
[Ссылки могут видеть только зарегистрированные и активированные пользователи.]
[Only registered and activated users can see links.]

ANALYZER: auCDtect: CD records authenticity detector, version 0.8.2
Copyright © 2004 Oleg Berngardt. All rights reserved.
Copyright © 2004 Alexander Djourik. All rights reserved.


FILE: Deep Purple - Machine Head (Japan 32XD-564) [1st Pressing].flac
Size: 245907056 Hash: B3E240D7CB1170D4660865E51804AB4D Accuracy: -m0
Conclusion: CDDA 99%
Signature: BB456B4199C2EBFE298F10CEE0F83608BC408497
[свернуть]

Отчёт Dynamic Range Meter

Код:
foobar2000 1.3.2 / Dynamic Range Meter 1.1.1
log date: 2014-04-30 01:04:20

--------------------------------------------------------------------------------
Analyzed: Deep Purple / Machine Head (Japan 32XD-564) [1st Pressing]
--------------------------------------------------------------------------------

DR         Peak         RMS     Duration Track
--------------------------------------------------------------------------------
DR11      -2.00 dB   -14.43 dB      6:09 01-Highway Star
DR13      -1.39 dB   -16.67 dB      4:52 02-Maybe I'm A Leo
DR12      -2.01 dB   -16.43 dB      5:07 03-Pictures Of Home
DR11      -2.17 dB   -16.21 dB      4:00 04-Never Before
DR13      -0.36 dB   -15.16 dB      5:42 05-Smoke On The Water
DR11      -2.05 dB   -15.87 dB      7:23 06-Lazy
DR12      -1.02 dB   -15.73 dB      4:35 07-Space Truckin'
--------------------------------------------------------------------------------

Number of tracks:  7
Official DR value: DR12

Samplerate:        44100 Hz
Channels:          2
Bits per sample:   16
Bitrate:           867 kbps
Codec:             FLAC
================================================================================
[свернуть]

Спектр частот

[свернуть]

Скачать Deep Purple - Machine Head

[Ссылки могут видеть только зарегистрированные и активированные пользователи.]
[Only registered and activated users can see links.]

password: sergych
[свернуть]

Контрольная сумма (хеш-сумма) архива

MD5: 199352f4ae76de347ee6dcd9bf3f32b9
[свернуть]
My rating to this release: 10/10


Последний раз редактировалось sergych, 13.08.2023 в 17:44. Причина: замена умершей ссылки
swint68 вне форума  
Вверх
3 пользователя(ей) сказали cпасибо:
Hammer (10.08.2023), sergych (09.01.2020), TAIFUN (04.01.2020)
 
  #2
Старый 10.08.2023, 10:02
Hammer
Пользователь
Досье
 
Аватар для Hammer
По умолчанию Re: Deep Purple - Machine Head

Machine Head by Deep Purple is for shure one of the more solid and important milestone of Hard Rock!

Hammer вне форума  
Вверх
Пользователь сказал cпасибо:
sergych (13.08.2023)
  #3
Старый 13.08.2023, 18:00
sergych
Координатор
Досье
 
Аватар для sergych
По умолчанию Re: Deep Purple - Machine Head

заменил умершую ссылку
__________________
TAIFUN.Wings of Soul

sergych вне форума  
Вверх
Пользователь сказал cпасибо:
TAIFUN (15.08.2023)
  #4
Старый 14.10.2023, 00:36
Alex11130
Меломан
Досье
 
Аватар для Alex11130
По умолчанию Re: Deep Purple - Machine Head

ПриветствуюКлассный сайт.Респект

Alex11130 вне форума  
Вверх
Похожие темы
Тема Автор Раздел Ответов Последнее сообщение
Сборник Deep Purple - Knocking at Your Back Door. The Best of Deep Purple in the 80's sergych Hard Rock 0 28.04.2014 18:36
Релиз Machine Head - Unto The Locust PUPOKIN Metal 0 18.09.2011 11:02
Machine Head Stanislav1989 Metal [FAQ] 0 08.11.2008 22:33
Альбом Deep Purple - Shades Of Deep Purple sergych Hard Rock 0 15.09.2008 18:00


Метки
1972 , 1987 , classic rock , deep purple , hard rock , japan , machine head

Опции темы

Ваши права в разделе
Вы не можете создавать новые темы
Вы не можете отвечать в темах
Вы не можете прикреплять вложения
Вы не можете редактировать свои сообщения

Быстрый переход


Текущее время: 16:40. Часовой пояс GMT +3.

©2008 - 2023 Taifun With Song
Powered by vBulletin® Version 3.8.10
Copyright ©2000 - 2023, vBulletin Solutions, Inc. Перевод: zCarot
При поддержке NIC.UA
0.21622 сек. | MySQL: 17