TAIFUN With Song - качественная и редкая музыка
Навигация
А знаете ли Вы, что...
Что поётся в песенке «уно-уно-уно, ун моменто»?
«Песенка «уно-уно-уно, ун моменто» из фильма «Формула любви» кажется написанной на итальянском языке. В действительности её текст представляет собой несвязный набор из итальянских слов, а придуман он был композитором фильма Геннадием Гладковым.»
 
Опции темы

  #1
Старый 25.08.2010, 09:47
PUPOKIN
Релизёр
Досье
 
Аватар для PUPOKIN
FLAC Secret Service - Greatest Hits


2000 - Secret Service - Greatest Hits



[Ссылки могут видеть только зарегистрированные и активированные пользователи.]
[Only registered and activated users can see links.]

Исполнитель/Artist: Secret Service
Альбом/Album: Top Secret (Greatest Hits)
Год/Year: 2000
Жанр/Genre: Synth-pop
Страна/Country: Германия
Рекорд-лейбл/Record label: Stockholm Records
Номер в каталоге/Catalogue #: 159 765-2
Формат/Format: Free Lossless Audio Codec (*.flac)
Качество/Quality: Lossless
Тип рипа/RIP Type: image+.cue
Продолжительность/Length: 01:13:39
Источник/Source: Из интернета
Размер/Size: 589.9 MB

Сканы в комплекте

Треклист

01. Oh Susie [0:04:09.53]
02. The Dancer [0:03:34.49]
03. Ten O'Clock Postman [0:03:38.37]
04. Cry Softly (Time Is Mourning) [0:03:32.26]
05. Flash In The Night [0:03:38.20]
06. Let Us Dance Just A Little Bit More [0:04:13.09]
07. Ye Si Ca [0:03:10.37]
08. If I Try [0:04:07.66]
09. Fire Into Ice [0:03:43.09]
10. Destiny Of Love [0:04:10.50]
11. Night City [0:04:10.16]
12. Rainy Day Memories [0:03:10.44]
13. L.A. Goodbye [0:03:18.96]
14. When The Night Closes In [0:04:07.24]
15. The Sound Of The Rain [0:03:52.00]
16. Bring Heaven Down [0:03:39.69]
17. Like A Morning Song [0:03:02.60]
18. Dancing In Madness [0:02:55.50]
19. Jo-Anne Jo-Anne [0:03:21.49]
20. I'm So I'm So I'm So (I'm So In Love With You) [0:04:03.80]
[свернуть]

Превью на YouTube

[свернуть]

EAC лог

Exact Audio Copy V1.0 beta 3 from 29. August 2011

EAC extraction logfile from 8. May 2013, 1:39

Secret Service / Top Secret - Greatest Hits

Used drive : PLEXTOR DVDR PX-716A Adapter: 0 ID: 0

Read mode : Secure
Utilize accurate stream : Yes
Defeat audio cache : Yes
Make use of C2 pointers : No

Read offset correction : 30
Overread into Lead-In and Lead-Out : Yes
Fill up missing offset samples with silence : Yes
Delete leading and trailing silent blocks : No
Null samples used in CRC calculations : Yes
Used interface : Native Win32 interface for Win NT & 2000

Used output format : User Defined Encoder
Selected bitrate : 896 kBit/s
Quality : High
Add ID3 tag : No
Command line compressor : C:\Program Files (x86)\FLAC\flac.exe
Additional command line options : -V -8 -T "Date=%year%" -T "Genre=%genre%" %source%


TOC of the extracted CD

Track | Start | Length | Start sector | End sector
---------------------------------------------------------
1 | 0:00.00 | 4:09.40 | 0 | 18714
2 | 4:09.40 | 3:34.37 | 18715 | 34801
3 | 7:44.02 | 3:38.28 | 34802 | 51179
4 | 11:22.30 | 3:32.20 | 51180 | 67099
5 | 14:54.50 | 3:38.15 | 67100 | 83464
6 | 18:32.65 | 4:13.07 | 83465 | 102446
7 | 22:45.72 | 3:10.28 | 102447 | 116724
8 | 25:56.25 | 4:07.50 | 116725 | 135299
9 | 30:04.00 | 3:43.07 | 135300 | 152031
10 | 33:47.07 | 4:10.38 | 152032 | 170819
11 | 37:57.45 | 4:10.12 | 170820 | 189581
12 | 42:07.57 | 3:10.33 | 189582 | 203864
13 | 45:18.15 | 3:18.72 | 203865 | 218786
14 | 48:37.12 | 4:07.18 | 218787 | 237329
15 | 52:44.30 | 3:52.00 | 237330 | 254729
16 | 56:36.30 | 3:39.52 | 254730 | 271206
17 | 60:16.07 | 3:02.45 | 271207 | 284901
18 | 63:18.52 | 2:55.38 | 284902 | 298064
19 | 66:14.15 | 3:21.37 | 298065 | 313176
20 | 69:35.52 | 4:03.60 | 313177 | 331461


Range status and errors

Selected range

Filename E:\mtorrent_flac\Secret Service - CD Collection\2000 Secret Service - Top Secret (Greatest Hits) (159 765-2)\Secret Service - Top Secret - Greatest Hits.wav

Peak level 100.0 %
Extraction speed 1.8 X
Range quality 100.0 %
Test CRC AA000365
Copy CRC AA000365
Copy OK

No errors occurred


AccurateRip summary

Track 1 accurately ripped (confidence 2) [DCE0E73C] (AR v2)
Track 2 accurately ripped (confidence 2) [1179D10C] (AR v2)
Track 3 accurately ripped (confidence 2) [EB16DAE9] (AR v2)
Track 4 accurately ripped (confidence 2) [AF8CA924] (AR v2)
Track 5 accurately ripped (confidence 2) [32405F39] (AR v2)
Track 6 accurately ripped (confidence 2) [D7E7B256] (AR v2)
Track 7 accurately ripped (confidence 2) [A045B438] (AR v2)
Track 8 accurately ripped (confidence 2) [044CA4B0] (AR v2)
Track 9 accurately ripped (confidence 2) [4F33BCAB] (AR v2)
Track 10 accurately ripped (confidence 2) [199091A5] (AR v2)
Track 11 accurately ripped (confidence 2) [0526476A] (AR v2)
Track 12 accurately ripped (confidence 2) [818CEA1A] (AR v2)
Track 13 accurately ripped (confidence 2) [27EF1657] (AR v2)
Track 14 accurately ripped (confidence 2) [45062DC2] (AR v2)
Track 15 accurately ripped (confidence 2) [F7B9C448] (AR v2)
Track 16 accurately ripped (confidence 2) [0E54DEED] (AR v2)
Track 17 accurately ripped (confidence 2) [6216D502] (AR v2)
Track 18 accurately ripped (confidence 2) [55DA1DBB] (AR v2)
Track 19 accurately ripped (confidence 2) [62C8F69D] (AR v2)
Track 20 accurately ripped (confidence 15) [84388924] (AR v1)

All tracks accurately ripped

End of status report

---- CUETools DB Plugin V2.1.5

[CTDB TOCID: 2e81NYU_hL3ZDRpFyg2A1l5xC_w-] found
Submit result: 2e81NYU_hL3ZDRpFyg2A1l5xC_w- has been confirmed
Track | CTDB Status
1 | (7/7) Accurately ripped
2 | (7/7) Accurately ripped
3 | (7/7) Accurately ripped
4 | (7/7) Accurately ripped
5 | (7/7) Accurately ripped
6 | (7/7) Accurately ripped
7 | (7/7) Accurately ripped
8 | (7/7) Accurately ripped
9 | (7/7) Accurately ripped
10 | (7/7) Accurately ripped
11 | (7/7) Accurately ripped
12 | (7/7) Accurately ripped
13 | (7/7) Accurately ripped
14 | (7/7) Accurately ripped
15 | (7/7) Accurately ripped
16 | (7/7) Accurately ripped
17 | (7/7) Accurately ripped
18 | (7/7) Accurately ripped
19 | (7/7) Accurately ripped
20 | (7/7) Accurately ripped


==== Log checksum EBE38B1305556E38FAE1A157F5989A46B75D694830B7BFA22678D1D337BD4A62 ====
[свернуть]

Файл CUE

REM GENRE Pop
REM DATE 2000
REM DISCID 41114314
REM COMMENT "ExactAudioCopy v1.0b3"
PERFORMER "Secret Service"
TITLE "Top Secret - Greatest Hits"
FILE "Secret Service - Top Secret - Greatest Hits.flac" WAVE
TRACK 01 AUDIO
TITLE "Oh Susie"
PERFORMER "Secret Service"
INDEX 01 00:00:00
TRACK 02 AUDIO
TITLE "The Dancer"
PERFORMER "Secret Service"
INDEX 01 04:09:40
TRACK 03 AUDIO
TITLE "Ten O'Clock Postman"
PERFORMER "Secret Service"
INDEX 01 07:44:02
TRACK 04 AUDIO
TITLE "Cry Softly (Time Is Mourning)"
PERFORMER "Secret Service"
INDEX 01 11:22:30
TRACK 05 AUDIO
TITLE "Flash In The Night"
PERFORMER "Secret Service"
INDEX 01 14:54:50
TRACK 06 AUDIO
TITLE "Let Us Dance Just A Little Bit More"
PERFORMER "Secret Service"
INDEX 01 18:32:65
TRACK 07 AUDIO
TITLE "Ye Si Ca"
PERFORMER "Secret Service"
INDEX 01 22:45:72
TRACK 08 AUDIO
TITLE "If I Try"
PERFORMER "Secret Service"
INDEX 01 25:56:25
TRACK 09 AUDIO
TITLE "Fire Into Ice"
PERFORMER "Secret Service"
INDEX 01 30:04:00
TRACK 10 AUDIO
TITLE "Destiny Of Love"
PERFORMER "Secret Service"
INDEX 01 33:47:07
TRACK 11 AUDIO
TITLE "Night City"
PERFORMER "Secret Service"
INDEX 01 37:57:45
TRACK 12 AUDIO
TITLE "Rainy Day Memories"
PERFORMER "Secret Service"
INDEX 01 42:07:57
TRACK 13 AUDIO
TITLE "L.A. Goodbye"
PERFORMER "Secret Service"
INDEX 01 45:18:15
TRACK 14 AUDIO
TITLE "When The Night Closes In"
PERFORMER "Secret Service"
INDEX 01 48:37:12
TRACK 15 AUDIO
TITLE "The Sound Of The Rain"
PERFORMER "Secret Service"
INDEX 01 52:44:30
TRACK 16 AUDIO
TITLE "Bring Heaven Down"
PERFORMER "Secret Service"
INDEX 01 56:36:30
TRACK 17 AUDIO
TITLE "Like A Morning Song"
PERFORMER "Secret Service"
INDEX 01 60:16:07
TRACK 18 AUDIO
TITLE "Dancing In Madness"
PERFORMER "Secret Service"
INDEX 01 63:18:52
TRACK 19 AUDIO
TITLE "Jo-Anne Jo-Anne"
PERFORMER "Secret Service"
INDEX 01 66:14:15
TRACK 20 AUDIO
TITLE "I'm So I'm So I'm So (I'm So In Love With You)"
PERFORMER "Secret Service"
INDEX 01 69:35:52
[свернуть]

Лог проверки качества

AUDIOCHECKER v2.0 beta (build 457) - by Dester - [Ссылки могут видеть только зарегистрированные и активированные пользователи.]
[Only registered and activated users can see links.]
~~~~~~~~~~~~~~~~~~~~~~~~~~~~~~~~~~
-=== НЕ РЕДАКТИРУЙТЕ ЭТОТ ФАЙЛ! ===-

Путь: ...\2000 - Top Secret (Greatest Hits) (159 765-2)

1 -=- Secret Service - Top Secret - Greatest Hits.flac -=- CDDA (100%)

167234372

=================

-----------------------

DON'T MODIFY THIS FILE

-----------------------

PERFORMER: auCDtect Task Manager, ver. 1.6.0 RC1 build 1.6.0.1
Copyright © 2008-2010 y-soft. All rights reserved
[Ссылки могут видеть только зарегистрированные и активированные пользователи.]
[Only registered and activated users can see links.]

ANALYZER: auCDtect: CD records authenticity detector, version 0.8.2
Copyright © 2004 Oleg Berngardt. All rights reserved.
Copyright © 2004 Alexander Djourik. All rights reserved.


FILE: Secret Service - Top Secret - Greatest Hits.flac
Size: 562661678 Hash: 034C2C4A1CB5211A3D52C0CBAE94D231 Accuracy: -m8
Conclusion: CDDA 100%
Signature: C61AB311E3039F30D0736652102F4B5E63AAB207
[свернуть]

Отчёт Dynamic Range Meter

Код:
foobar2000 2.0 / Замер динамического диапазона (DR) 1.1.1
Дата отчёта:		2023-08-01 08:29:09

--------------------------------------------------------------------------------
Анализ:   Secret Service / Top Secret - Greatest Hits
--------------------------------------------------------------------------------

DR         Пики         RMS           Продолжительность трека
--------------------------------------------------------------------------------
DR6       -0.01 дБ    -7.21 дБ      4:10 01-Oh Susie
DR5        0.00 дБ    -6.83 дБ      3:34 02-The Dancer
DR6        0.00 дБ    -7.19 дБ      3:38 03-Ten O'Clock Postman
DR6        0.00 дБ    -7.75 дБ      3:32 04-Cry Softly (Time Is Mourning)
DR7       -0.01 дБ    -7.69 дБ      3:38 05-Flash In The Night
DR7       -0.01 дБ    -8.20 дБ      4:13 06-Let Us Dance Just A Little Bit More
DR7       -0.01 дБ    -8.11 дБ      3:10 07-Ye Si Ca
DR6        0.00 дБ    -7.43 дБ      4:08 08-If I Try
DR7       -0.01 дБ    -7.65 дБ      3:43 09-Fire Into Ice
DR6       -0.09 дБ    -7.82 дБ      4:11 10-Destiny Of Love
DR7        0.00 дБ    -8.12 дБ      4:10 11-Night City
DR8        0.00 дБ    -9.50 дБ      3:10 12-Rainy Day Memories
DR7       -0.01 дБ    -8.03 дБ      3:19 13-L.A. Goodbye
DR7       -0.01 дБ    -8.90 дБ      4:07 14-When The Night Closes In
DR7       -0.10 дБ    -8.58 дБ      3:52 15-The Sound Of The Rain
DR6       -0.01 дБ    -7.33 дБ      3:40 16-Bring Heaven Down
DR6       -0.01 дБ    -7.78 дБ      3:03 17-Like A Morning Song
DR6       -0.01 дБ    -7.42 дБ      2:56 18-Dancing In Madness
DR7       -0.01 дБ    -8.03 дБ      3:21 19-Jo-Anne Jo-Anne
DR6        0.00 дБ    -7.05 дБ      4:04 20-I'm So I'm So I'm So (I'm So In Love With You)
--------------------------------------------------------------------------------

Количество треков:	20
Реальные значения DR:	DR7

Частота:			44100 Гц
Каналов:			2
Разрядность: 		16
Битрейт:			1018 кбит/с
Кодек:			FLAC
================================================================================
[свернуть]

Спектр частот

[свернуть]

Скачать Secret Service - Greatest Hits

[Ссылки могут видеть только зарегистрированные и активированные пользователи.]
[Only registered and activated users can see links.]

password: sergych
[свернуть]

Контрольная сумма (хеш-сумма) архива

MD5: 3a505a9e5056a310399f8d6f83216c75
[свернуть]
My rating to this release: 9/10


Последний раз редактировалось sergych, 01.08.2023 в 18:34. Причина: переоформление темы с заменой лосслесс рипом
PUPOKIN вне форума  
Вверх
Пользователь сказал cпасибо:
TAIFUN (04.08.2023)
 
  #2
Старый 01.08.2023, 18:35
sergych
Координатор
Досье
 
Аватар для sergych
По умолчанию Re: Secret Service - Greatest Hits

переоформление темы с заменой лосслесс рипом убитых ссылок с мп3
__________________
TAIFUN.Wings of Soul

sergych вне форума  
Вверх
Пользователь сказал cпасибо:
TAIFUN (04.08.2023)
Похожие темы
Тема Автор Раздел Ответов Последнее сообщение
Сборник Simply Red - Greatest Hits sergych Зарубежная Поп-Музыка 0 14.12.2014 18:46
VA OE3 Greatest Hits Vol 50 PUPOKIN Dance 0 06.08.2010 09:58
Релиз A1 - Greatest Hits PUPOKIN Зарубежная Поп-Музыка 0 10.02.2009 18:10
Релиз Italian Secret Service - Not The Same PUPOKIN Jazz и Blues 0 27.01.2009 10:33
Nas - Greatest Hits Alex1990 Зарубежный 0 05.05.2008 07:31


Метки
2000 , pop , secret service

Опции темы

Ваши права в разделе
Вы не можете создавать новые темы
Вы не можете отвечать в темах
Вы не можете прикреплять вложения
Вы не можете редактировать свои сообщения

Быстрый переход


Текущее время: 16:50. Часовой пояс GMT +3.

©2008 - 2023 Taifun With Song
Powered by vBulletin® Version 3.8.10
Copyright ©2000 - 2023, vBulletin Solutions, Inc. Перевод: zCarot
При поддержке NIC.UA
0.24927 сек. | MySQL: 17