TAIFUN With Song - качественная и редкая музыка
Навигация
А знаете ли Вы, что...
Какое чрезвычайное происшествие дало мощный толчок развитию хип-хопа?
«В ночь с 13 на 14 июля 1977 года в Нью-Йорке вследствие ударов молний произошел блэкаут — массовое отключение электричества. Началось мародёрство и разграбление магазинов. Из салонов электроники было украдено множество дорогих диджейских установок, которые были не по карману негритянскому населению. Благодаря этому появилось большое количество новых диджеев, играющих в недавно зародившемся стиле хип-хоп, что дало мощный толчок в его развитии и популяризации за пределами Бронкса.»
 
Опции темы

  #1
Старый 09.09.2013, 19:24
sergych
Координатор
Досье
 
Аватар для sergych
FLAC In-Grid - Rendez Vous


2003 - In-Grid - Rendez-Vous (2CD's)




Исполнитель/Artist: In-Grid
Альбом/Album: Rendez-Vous (2xCD)
Год/Year: 2002
Ремастеринг/Remaster: 2003
Жанр/Genre: Europop, Eurodance
Страна/Country: Германия
Рекорд-лейбл/Record label: ZYX Music
Номер в каталоге/Catalogue #: ZYX 20646-2
Формат/Format: Free Lossless Audio Codec (*.flac)
Качество/Quality: Lossless
Тип рипа/RIP Type: image+.cue



Продолжительность/Length: 01:14:15
Источник/Source: Собственный рип
Размер/Size: 552.4 MB

Сканы в комплекте

Треклист

CD1
CD2
[свернуть]

Превью на YouTube

[свернуть]

EAC лог

CD1
CD2
[свернуть]

Файл CUE

CD1
CD2
[свернуть]

Лог проверки качества

AUDIOCHECKER v2.0 beta (build 457) - by Dester - [Ссылки могут видеть только зарегистрированные и активированные пользователи.]
[Only registered and activated users can see links.]
~~~~~~~~~~~~~~~~~~~~~~~~~~~~~~~~~~
-=== НЕ РЕДАКТИРУЙТЕ ЭТОТ ФАЙЛ! ===-

Путь: ...\2003 - Rendez-Vous [ZYX 20646-2]

1 -=- In-Grid - Rendez-Vous (CD1).flac -=- CDDA (100%)
2 -=- In-Grid - Rendez-Vous (CD2).flac -=- CDDA (100%)

Сводка 100,00% CDDA

22919076

---------------

PERFORMER: auCDtect Task Manager, ver. 1.6.0 RC1 build 1.6.0.1
Copyright © 2008-2010 y-soft. All rights reserved
[Ссылки могут видеть только зарегистрированные и активированные пользователи.]
[Only registered and activated users can see links.]

ANALYZER: auCDtect: CD records authenticity detector, version 0.8.2
Copyright © 2004 Oleg Berngardt. All rights reserved.
Copyright © 2004 Alexander Djourik. All rights reserved.


FILE: In-Grid - Rendez-Vous (CD2).flac
Size: 222824139 Hash: 0C7BD0BCC9FF9527531B88702B4CD91C Accuracy: -m8
Conclusion: CDDA 100%
Signature: 1C441B5298E0ADEB1BA146E893CA88D29B598F69
FILE: In-Grid - Rendez-Vous (CD1).flac
Size: 307883725 Hash: 2C5EF43A38E08E37DE667C3B63E1EE17 Accuracy: -m8
Conclusion: CDDA 100%
Signature: 51CC0EE745D76CD09E2105E56E68B3FAB5AA5ED1
[свернуть]

Отчёт Dynamic Range Meter

Код:
foobar2000 1.6 / Замер динамического диапазона (DR) 1.1.1
Дата отчёта:		2020-09-15 18:42:39

--------------------------------------------------------------------------------
Анализ:   In-Grid / Rendez-Vous (CD1)
--------------------------------------------------------------------------------

DR         Пики         RMS           Продолжительность трека
--------------------------------------------------------------------------------
DR5       -0.45 дБ    -7.47 дБ      3:28 01-In-Tango
DR6       -0.30 дБ    -7.27 дБ      3:39 02-Tu Es Foutu
DR6       -0.50 дБ    -9.06 дБ      3:46 03-Mais La Nuit ... Il Dort!
DR7       -0.30 дБ    -8.28 дБ      3:34 04-Shock
DR6       -0.45 дБ    -7.66 дБ      3:46 05-Dans Ma Memoire
DR7       -0.30 дБ    -9.21 дБ      3:56 06-Pour Toujours
DR7       -0.30 дБ    -9.36 дБ      3:33 07-Souvenir D'Ete
DR6       -0.50 дБ    -7.83 дБ      3:35 08-I'm Folle De Toi
DR7       -0.27 дБ    -8.79 дБ      3:23 09-Je Ne Crois Pas
DR6       -0.30 дБ    -7.87 дБ      3:34 10-Esclave De Toi
DR6       -0.82 дБ    -8.14 дБ      3:30 11-Ah L'Amour L'Amour
DR8       -0.30 дБ    -9.25 дБ      3:21 12-Va Au Diable
--------------------------------------------------------------------------------

Количество треков:	12
Реальные значения DR:	DR6

Частота:			44100 Гц
Каналов:			2
Разрядность: 		16
Битрейт:			953 кбит/с
Кодек:			FLAC
================================================================================

--------------------------------------------------------------------------------
Анализ:   In-Grid / Rendez-Vous (CD2)
--------------------------------------------------------------------------------

DR         Пики         RMS           Продолжительность трека
--------------------------------------------------------------------------------
DR6       -0.30 дБ    -7.86 дБ      6:01 01-Tu Es Foutu (Original Extended)
DR7       -0.30 дБ    -9.84 дБ      6:51 02-Tu Es Foutu - THE REMIXES (Miami Grazin' Dub)
DR2       -1.31 дБ    -4.91 дБ      5:00 03-You Promised Me (Tu Es Foutu) (Sfaction Mix)
DR6       -0.27 дБ    -7.73 дБ      4:25 04-In-Tango (In-String Extended)
DR5       -0.27 дБ    -7.14 дБ      5:17 05-Shock (Gambafreaks vs. III Sound Academy Extended Remix)
DR7       -0.30 дБ    -8.93 дБ      3:36 06-Shock (Xmas)
--------------------------------------------------------------------------------

Количество треков:	6
Реальные значения DR:	DR6

Частота:			44100 Гц
Каналов:			2
Разрядность: 		16
Битрейт:			953 кбит/с
Кодек:			FLAC
================================================================================
[свернуть]

Спектр частот



[свернуть]

Скачать In-Grid - Rendez-Vous

[Ссылки могут видеть только зарегистрированные и активированные пользователи.]
[Only registered and activated users can see links.]

password: sergych
[свернуть]

Контрольная сумма (хеш-сумма) архива

MD5: b0ba266f556488179b29643f07cce773
[свернуть]
My opinion of release: 10/10
__________________
TAIFUN.Wings of Soul


Последний раз редактировалось sergych, 15.09.2020 в 17:28. Причина: сменил рип
Вверх
3 пользователя(ей) сказали cпасибо:
aleks601409 (31.01.2020), Bumbum (14.12.2014), TAIFUN (16.09.2020)
 
  #2
Старый 15.09.2020, 17:30
sergych
Координатор
Досье
 
Аватар для sergych
По умолчанию Re: In-Grid - Rendez Vous

заменил потрековый рип образом, дооформление темы
__________________
TAIFUN.Wings of Soul

Вверх
Пользователь сказал cпасибо:
TAIFUN (16.09.2020)
Похожие темы
Тема Автор Раздел Ответов Последнее сообщение
Альбом In-Grid - La Vie En Rose sergych Зарубежная Поп-Музыка 2 06.09.2020 22:03
Альбом In-Grid - Tu Es Foutu sergych Зарубежная Поп-Музыка 2 05.09.2020 11:40
Альбом In-Grid - Passion sergych Зарубежная Поп-Музыка 2 20.09.2013 20:53
Сингл In-Grid - In-Tango sergych Зарубежная Поп-Музыка 0 04.04.2009 07:03
Альбом David Vendetta - Rendez-vouz DarkDan House 1 12.09.2008 19:24


Метки
2003 , in-grid , pop

Опции темы

Ваши права в разделе
Вы не можете создавать новые темы
Вы не можете отвечать в темах
Вы не можете прикреплять вложения
Вы не можете редактировать свои сообщения

Быстрый переход


Текущее время: 00:10. Часовой пояс GMT +3.

© 2008 - 2020 Taifun With Song
Powered by vBulletin® Version 3.8.10
Copyright ©2000 - 2020, vBulletin Solutions, Inc. Перевод: zCarot
При поддержке NIC.UA
Яндекс.Метрика