TAIFUN With Song - качественная и редкая музыка
Навигация
А знаете ли Вы, что...
Какой рок-вокалист ещё в школьные годы откусил себе кусочек языка?
«Характерному тембру своего голоса солист Rolling Stones Мик Джаггер отчасти обязан баскетболу, которым он увлекался в школе. На одном из матчей Мик с такой силой врезался в соперника, что откусил себе кусочек языка. После этого он не говорил неделю, а когда заговорил, то понял, что голос изменился.»
 
Опции темы

  #1
Старый 23.03.2016, 21:58
sergych
Координатор
Досье
 
Аватар для sergych
Релиз Raphael - Canciones De Amor


2009 - Raphael - Canciones De Amor




Исполнитель/Artist: Raphael
Альбом/Album: Canciones De Amor
Год/Year: 2009
Жанр/Genre: Pop
Рекорд-лейбл/Record label: Sony Music
Номер в каталоге/Catalogue #: 8869 763037 2
Формат/Format: Free Lossless Audio Codec (*.flac)
Качество/Quality: Lossless
Тип рипа/RIP Type: image+.cue
Продолжительность/Length: 00:54:58
Источник/Source: Собственный рип
Размер/Size: 440.6 MB

Сканы в комплекте

Треклист

01. Toco Madera [0:03:40.40]
02. Lo Voy A Dividir [0:03:49.57]
03. Mintiendome Olvidarte [0:04:08.39]
04. Yo Sigo Amandote [0:03:26.16]
05. Las Apariencias Enganan [0:03:56.07]
06. Maravilloso, Corazon, Maravilloso [0:04:22.45]
07. Voy A Cruzar Los Dedos [0:04:14.02]
08. Te Voy A Echar Al Olvido [0:04:06.21]
09. Una Locura [0:05:06.44]
10. Si Supieras [0:04:03.30]
11. Comienzame A Vivir [0:03:50.18]
12. Se Muere Por Mi La Nina [0:03:35.03]
13. La Tierra [0:03:05.26]
14. No Me Puedo Quejar (Non Je Ne Regrette Rien) [0:03:33.17]
[свернуть]

youtube.com

[свернуть]

EAC лог

Exact Audio Copy V1.1 from 23. June 2015

EAC extraction logfile from 20. March 2016, 2:37

Raphael / Canciones De Amor

Used drive : ATAPI iHAS124 D Adapter: 0 ID: 2

Read mode : Secure
Utilize accurate stream : Yes
Defeat audio cache : Yes
Make use of C2 pointers : No

Read offset correction : 6
Overread into Lead-In and Lead-Out : No
Fill up missing offset samples with silence : Yes
Delete leading and trailing silent blocks : No
Null samples used in CRC calculations : Yes
Used interface : Installed external ASPI interface

Used output format : User Defined Encoder
Selected bitrate : 1024 kBit/s
Quality : High
Add ID3 tag : Yes
Command line compressor : C:\Program Files (x86)\Exact Audio Copy\Flac\flac.exe
Additional command line options : -6 -V -T "ARTIST=%artist%" -T "TITLE=%title%" -T "ALBUM=%albumtitle%" -T "DATE=%year%" -T "TRACKNUMBER=%tracknr%" -T "GENRE=%genre%" -T "COMMENT=%comment%" -T "BAND=%albuminterpret%" -T "COMPOSER=%composer%" %haslyrics%--tag-from-file=LYRICS="%lyricsfile%"%haslyrics% -T "DISCNUMBER=%cdnumber%" -T "TOTALDISCS=%totalcds%" -T "TOTALTRACKS=%numtracks%" %hascover%--picture="%coverfile%"%hascover% %source% -o %dest%


TOC of the extracted CD

Track | Start | Length | Start sector | End sector
---------------------------------------------------------
1 | 0:00.00 | 3:40.40 | 0 | 16539
2 | 3:40.40 | 3:49.57 | 16540 | 33771
3 | 7:30.22 | 4:08.39 | 33772 | 52410
4 | 11:38.61 | 3:26.16 | 52411 | 67876
5 | 15:05.02 | 3:56.07 | 67877 | 85583
6 | 19:01.09 | 4:22.45 | 85584 | 105278
7 | 23:23.54 | 4:14.02 | 105279 | 124330
8 | 27:37.56 | 4:06.21 | 124331 | 142801
9 | 31:44.02 | 5:06.44 | 142802 | 165795
10 | 36:50.46 | 4:03.30 | 165796 | 184050
11 | 40:54.01 | 3:50.18 | 184051 | 201318
12 | 44:44.19 | 3:35.03 | 201319 | 217446
13 | 48:19.22 | 3:05.26 | 217447 | 231347
14 | 51:24.48 | 3:33.17 | 231348 | 247339


Range status and errors

Selected range

Filename C:\mm\Raphael\2009 - Canciones de Amor [8869 763037 2]\Raphael - Canciones De Amor.wav

Peak level 100.0 %
Extraction speed 9.5 X
Range quality 100.0 %
Test CRC AAC8FB3C
Copy CRC AAC8FB3C
Copy OK

No errors occurred


AccurateRip summary

Track 1 cannot be verified as accurate (confidence 2) [858D64B7], AccurateRip returned [C322C728] (AR v2)
Track 2 cannot be verified as accurate (confidence 2) [F6B84DCA], AccurateRip returned [2D9EECD4] (AR v2)
Track 3 cannot be verified as accurate (confidence 2) [E25F3D3D], AccurateRip returned [E243935C] (AR v2)
Track 4 cannot be verified as accurate (confidence 2) [71C97619], AccurateRip returned [EB6D7AF3] (AR v2)
Track 5 cannot be verified as accurate (confidence 2) [5C78695A], AccurateRip returned [3B7B7CDF] (AR v2)
Track 6 cannot be verified as accurate (confidence 2) [0F984C5A], AccurateRip returned [6AA41C1C] (AR v2)
Track 7 cannot be verified as accurate (confidence 2) [011381D4], AccurateRip returned [07A4363E] (AR v2)
Track 8 cannot be verified as accurate (confidence 2) [D3C99F08], AccurateRip returned [CD43396A] (AR v2)
Track 9 cannot be verified as accurate (confidence 2) [F7C4B6C5], AccurateRip returned [E15647BD] (AR v2)
Track 10 cannot be verified as accurate (confidence 2) [B48CFAD9], AccurateRip returned [59188DFF] (AR v2)
Track 11 cannot be verified as accurate (confidence 2) [9B3D7DD8], AccurateRip returned [FB91656B] (AR v2)
Track 12 cannot be verified as accurate (confidence 2) [796A8A4F], AccurateRip returned [3F7D769B] (AR v2)
Track 13 cannot be verified as accurate (confidence 2) [C6E98E29], AccurateRip returned [4AFFEBC6] (AR v2)
Track 14 cannot be verified as accurate (confidence 2) [BE5F1068], AccurateRip returned [C1367F25] (AR v2)

No tracks could be verified as accurate
You may have a different pressing from the one(s) in the database

End of status report
[свернуть]

Файл CUE

REM GENRE Pop
REM DATE 2009
REM DISCID AD0CE10E
REM COMMENT "ExactAudioCopy v1.1"
PERFORMER "Raphael"
TITLE "Canciones De Amor"
FILE "Raphael - Canciones De Amor.flac" WAVE
TRACK 01 AUDIO
TITLE "Toco Madera"
PERFORMER "Raphael"
INDEX 01 00:00:00
TRACK 02 AUDIO
TITLE "Lo Voy A Dividir"
PERFORMER "Raphael"
INDEX 00 03:38:40
INDEX 01 03:40:40
TRACK 03 AUDIO
TITLE "Mintiendome Olvidarte"
PERFORMER "Raphael"
INDEX 00 07:28:22
INDEX 01 07:30:22
TRACK 04 AUDIO
TITLE "Yo Sigo Amandote"
PERFORMER "Raphael"
INDEX 00 11:36:61
INDEX 01 11:38:61
TRACK 05 AUDIO
TITLE "Las Apariencias Enganan"
PERFORMER "Raphael"
INDEX 00 15:03:02
INDEX 01 15:05:02
TRACK 06 AUDIO
TITLE "Maravilloso, Corazon, Maravilloso"
PERFORMER "Raphael"
INDEX 00 18:59:09
INDEX 01 19:01:09
TRACK 07 AUDIO
TITLE "Voy A Cruzar Los Dedos"
PERFORMER "Raphael"
INDEX 00 23:21:54
INDEX 01 23:23:54
TRACK 08 AUDIO
TITLE "Te Voy A Echar Al Olvido"
PERFORMER "Raphael"
INDEX 00 27:35:56
INDEX 01 27:37:56
TRACK 09 AUDIO
TITLE "Una Locura"
PERFORMER "Raphael"
INDEX 00 31:42:02
INDEX 01 31:44:02
TRACK 10 AUDIO
TITLE "Si Supieras"
PERFORMER "Raphael"
INDEX 00 36:48:46
INDEX 01 36:50:46
TRACK 11 AUDIO
TITLE "Comienzame A Vivir"
PERFORMER "Raphael"
INDEX 00 40:52:00
INDEX 01 40:54:01
TRACK 12 AUDIO
TITLE "Se Muere Por Mi La Nina"
PERFORMER "Raphael"
INDEX 00 44:42:19
INDEX 01 44:44:19
TRACK 13 AUDIO
TITLE "La Tierra"
PERFORMER "Raphael"
INDEX 00 48:17:22
INDEX 01 48:19:22
TRACK 14 AUDIO
TITLE "No Me Puedo Quejar (Non Je Ne Regrette Rien)"
PERFORMER "Raphael"
INDEX 00 51:22:48
INDEX 01 51:24:48
[свернуть]

Лог проверки качества

AUDIOCHECKER v2.0 beta (build 457) - by Dester - [Ссылки могут видеть только зарегистрированные и активированные пользователи.]
[Only registered and activated users can see links.]
~~~~~~~~~~~~~~~~~~~~~~~~~~~~~~~~~~
-=== НЕ РЕДАКТИРУЙТЕ ЭТОТ ФАЙЛ! ===-

Путь: ...\2009 - Canciones de Amor [8869 763037 2]

1 -=- Raphael - Canciones De Amor.flac -=- CDDA (100%)

69724084
[свернуть]

Спектр частот

[свернуть]

Скачать Raphael - Canciones De Amor

[Ссылки могут видеть только зарегистрированные и активированные пользователи.]
[Only registered and activated users can see links.]

password: sergych
[свернуть]
My opinion of release: 9/10
__________________
TAIFUN.Wings of Soul

Вверх
2 пользователя(ей) сказали cпасибо:
aleks601409 (14.09.2020), TAIFUN (24.03.2016)
 
  #2
Старый 14.09.2020, 07:30
aleks601409
Пользователь
Досье
 
Аватар для aleks601409
По умолчанию Re: Raphael - Canciones De Amor

Прекрасная компиляция выше всяких похвал


Последний раз редактировалось TAIFUN, 15.09.2020 в 13:24. Причина: Убран Caps Lock
Вверх
Пользователь сказал cпасибо:
sergych (15.09.2020)
Похожие темы
Тема Автор Раздел Ответов Последнее сообщение
Альбом The Pretenders - Viva El Amor sergych Alternative Rock 2 01.08.2014 20:49
Альбом Enrique Iglesias - Cosas Del Amor sergych Зарубежная Поп-Музыка 0 01.08.2014 20:11
Релиз Armik - Casa de Amor (2012) PUPOKIN Instrumental 0 05.02.2012 09:00
VA Genau Meine Musik (by Raphael Marionneau) PUPOKIN Chill Out 0 25.04.2010 10:02
Женя Отрадная - Porque amor SERAF Видеоклипы 0 06.05.2008 23:08


Метки
2009 , canciones de amor , pop , raphael

Опции темы

Ваши права в разделе
Вы не можете создавать новые темы
Вы не можете отвечать в темах
Вы не можете прикреплять вложения
Вы не можете редактировать свои сообщения

Быстрый переход


Текущее время: 23:42. Часовой пояс GMT +3.

© 2008 - 2020 Taifun With Song
Powered by vBulletin® Version 3.8.10
Copyright ©2000 - 2020, vBulletin Solutions, Inc. Перевод: zCarot
При поддержке NIC.UA
Яндекс.Метрика