TAIFUN With Song - качественная и редкая музыка
Навигация
А знаете ли Вы, что...
Каким образом исполняет музыку глухонемой финский рэпер Signmark?
«Финский рэп-исполнитель Марко Вуорихеймо, выступающий под ником Signmark, с рождения глухонемой. Его альбомы выходят одновременно на CD, где записаны звуковые дорожки с вокальными версиями (в исполнении приглашённых рэперов), и DVD, где артист «читает» каждый трек на языке жестов. Signmark даёт много концертов по всему миру, ориентируясь в ритме по вибрации бита и басовой линии. Он стал первым глухим музыкантом, подписавшим контракт с одним из ведущих лейблов — Warner Music.»
 
Опции темы

  #1
Старый 02.05.2015, 18:42
sergych
Координатор
Досье
 
Аватар для sergych
FLAC Faith Hill - Cry


2002 - Faith Hill - Cry




Исполнитель/Artist: Faith Hill
Альбом/Album: Cry
Год/Year: 2002
Жанр/Genre: Pop, ballads
Страна/Country: Соединённые Штаты
Рекорд-лейбл/Record label: Warner Bros.
Номер в каталоге/Catalogue #: 9 48001-2
Формат/Format: Free Lossless Audio Codec (*.flac)
Качество/Quality: Lossless
Тип рипа/RIP Type: image+.cue
Продолжительность/Length: 01:00:38
Источник/Source: Собственный рип
Размер/Size: 506.3 MB

Сканы в комплекте

Треклист

01. Free [0:04:38.40]
02. Cry [0:03:45.73]
03. One [0:05:20.02]
04. When The Lights Go Down [0:04:05.08]
05. Beautiful [0:04:41.70]
06. Unsaveable [0:03:51.34]
07. Baby You Belong [0:04:08.41]
08. If You're Gonna Fly Away [0:03:48.26]
09. Stronger [0:04:13.60]
10. If This Is The End [0:04:55.34]
11. This Is Me [0:05:04.27]
12. Back To You [0:04:35.71]
13. I Think I Will [0:04:08.30]
14. You're Still Here [0:03:19.39]
15. Data Track [0:11:24.36]
[свернуть]

youtube.com

[свернуть]

Исполнители/Performers

Edmund Stein, Faith Hill - vocals
Bekka Bramlett, Chris Rodriguez, Crystal Taliefero, Greg Barnhill, Lisa Cochran, Lisa Gregg, Marti Frederiksen - background vocals

Music Credits
Matt Rollings - piano
Jamie Muhoberac - organ, keyboard, Wurlitzer
Steve Nathan, Tim Akers - keyboard
Jim Cox - piano, Hammond organ
Eric Darken - percussion
Earl Dumler - oboe
Bill Reichenbach Jr. - trombone
John Fumo, Rick Baptist - trumpet
Bob Becker, Carole Mukogawa, Denyse Buffum, Evan Wilson, John Hayhurst, Karie Prescott, Kazi Pitelka, Lynn Grants, Matt Funes - viola
Joel Derouin - violin, concert master
Armen Garabedian, Berj Garabedian, Bob Peterson, Bruce Dukov, Charlie Bisharat, Darius Campo, David Stenske, Endre Granat, Eve Butler, Josephina Vergara, John Wittenberg, Haim Shtrum, Margaret Wooten, Maria Newman, Mari Tsumura, Mario deLeon, Mark Robertson, Michael Markman, Michele Richards, Peter Kent, Robert Matsuda, Sara Parkins, Sid Page, Susan Chatman - violin
Jonathan Yudkin - mandolin, cello, bazouki
Doug Moffett, Joel Peskin - baritone saxophone
Dan Higgins, Jim Horn, Sam Levine - tenor saxophone
Cynthia Wyatt - harp
Jim Hoke - autoharp
Jeff Cobble - lead guitar
Dann Huff, Jerry McPherson, Michael Hart Thompson - guitar
Dean Parks - acoustic guitar, gut string guitar
Michael Landau, Tim Pierce - acoustic guitar, electric guitar
Marti Frederiksen - acoustic guitar, percussion, electric guitar
Damon Johnson - acoustic guitar, electric guitar, slide guitar
Byron Gallimore - electric guitar, clavinet, sampling, slide guitar, drum loop, sampled keyboards, synthesizer accordion
Suzie Katayama - cello, conductor, string conductor
Dane Little, Dan Smith, Diane Little, Erika Duke, Larry Corbett, Maurice Grants, Miguel Martinez, Rudy Stein, Stefanie Fife, SStephen Erdody, teve Richards - cello
Vinnie Colaiuta - drums, tambourine
Chris McHugh, Matt Chamberlain, Toss Panos - drums
Annie Roboff, Erik Lutkins - drum loop
Bekka Bramlett - tambourine
Jimmie Lee Sloas, Leland Sklar, Paul Bushnell - bass
[свернуть]

EAC лог

Exact Audio Copy V1.0 beta 3 from 29. August 2011

EAC extraction logfile from 27. April 2015, 20:24

Faith Hill / Cry

Used drive : ATAPI iHAS124 D Adapter: 0 ID: 2

Read mode : Secure
Utilize accurate stream : Yes
Defeat audio cache : Yes
Make use of C2 pointers : No

Read offset correction : 6
Overread into Lead-In and Lead-Out : No
Fill up missing offset samples with silence : Yes
Delete leading and trailing silent blocks : No
Null samples used in CRC calculations : Yes
Used interface : Installed external ASPI interface

Used output format : User Defined Encoder
Selected bitrate : 1024 kBit/s
Quality : High
Add ID3 tag : No
Command line compressor : C:\Program Files (x86)\Exact Audio Copy\Flac\flac.exe
Additional command line options : -6 -V -T "ARTIST=%artist%" -T "TITLE=%title%" -T "ALBUM=%albumtitle%" -T "DATE=%year%" -T "TRACKNUMBER=%tracknr%" -T "GENRE=%genre%" -T "COMMENT=%comment%" -T "BAND=%albuminterpret%" -T "COMPOSER=%composer%" %haslyrics%--tag-from-file=LYRICS="%lyricsfile%"%haslyrics% -T "DISCNUMBER=%cdnumber%" -T "TOTALDISCS=%totalcds%" -T "TOTALTRACKS=%numtracks%" %hascover%--picture="%coverfile%"%hascover% %source% -o %dest%


TOC of the extracted CD

Track | Start | Length | Start sector | End sector
---------------------------------------------------------
1 | 0:00.00 | 4:38.40 | 0 | 20889
2 | 4:38.40 | 3:45.73 | 20890 | 37837
3 | 8:24.38 | 5:20.02 | 37838 | 61839
4 | 13:44.40 | 4:05.08 | 61840 | 80222
5 | 17:49.48 | 4:41.70 | 80223 | 101367
6 | 22:31.43 | 3:51.34 | 101368 | 118726
7 | 26:23.02 | 4:08.41 | 118727 | 137367
8 | 30:31.43 | 3:48.26 | 137368 | 154493
9 | 34:19.69 | 4:13.60 | 154494 | 173528
10 | 38:33.54 | 4:55.34 | 173529 | 195687
11 | 43:29.13 | 5:04.27 | 195688 | 218514
12 | 48:33.40 | 4:35.71 | 218515 | 239210
13 | 53:09.36 | 4:08.30 | 239211 | 257840
14 | 57:17.66 | 3:19.39 | 257841 | 272804
15 | 63:09.30 | 11:24.36 | 284205 | 335540


Range status and errors

Selected range

Filename C:\mm\Faith Hill\2002 - Cry [9 48001-2]\Faith Hill - Cry.wav

Peak level 100.0 %
Extraction speed 9.5 X
Range quality 99.9 %
Test CRC 980630C8
Copy CRC 980630C8
Copy OK

No errors occurred


AccurateRip summary

Track 1 accurately ripped (confidence 86) [87B8A893] (AR v2)
Track 2 accurately ripped (confidence 85) [5F112FF4] (AR v2)
Track 3 accurately ripped (confidence 86) [239D3410] (AR v2)
Track 4 accurately ripped (confidence 85) [655C3DD3] (AR v2)
Track 5 accurately ripped (confidence 85) [A39D9BC6] (AR v2)
Track 6 accurately ripped (confidence 86) [10D220F0] (AR v2)
Track 7 accurately ripped (confidence 87) [5F6D8ACC] (AR v2)
Track 8 accurately ripped (confidence 86) [879296F8] (AR v2)
Track 9 accurately ripped (confidence 85) [DBCCF687] (AR v2)
Track 10 accurately ripped (confidence 87) [0685D5BD] (AR v2)
Track 11 accurately ripped (confidence 86) [95047EED] (AR v2)
Track 12 accurately ripped (confidence 87) [E1E2EC85] (AR v2)
Track 13 accurately ripped (confidence 87) [31E5774C] (AR v2)
Track 14 accurately ripped (confidence 86) [F4953E85] (AR v2)

All tracks accurately ripped

End of status report
[свернуть]

Файл CUE

REM GENRE Country
REM DATE 2002
REM DISCID C211790F
REM COMMENT "ExactAudioCopy v1.0b3"
PERFORMER "Faith Hill"
TITLE "Cry"
FILE "Faith Hill - Cry.flac" WAVE
TRACK 01 AUDIO
TITLE "Free"
PERFORMER "Faith Hill"
INDEX 01 00:00:00
TRACK 02 AUDIO
TITLE "Cry"
PERFORMER "Faith Hill"
INDEX 01 04:38:40
TRACK 03 AUDIO
TITLE "One"
PERFORMER "Faith Hill"
INDEX 01 08:24:38
TRACK 04 AUDIO
TITLE "When The Lights Go Down"
PERFORMER "Faith Hill"
INDEX 01 13:44:40
TRACK 05 AUDIO
TITLE "Beautiful"
PERFORMER "Faith Hill"
INDEX 01 17:49:48
TRACK 06 AUDIO
TITLE "Unsaveable"
PERFORMER "Faith Hill"
INDEX 01 22:31:43
TRACK 07 AUDIO
TITLE "Baby You Belong"
PERFORMER "Faith Hill"
INDEX 01 26:23:02
TRACK 08 AUDIO
TITLE "If You're Gonna Fly Away"
PERFORMER "Faith Hill"
INDEX 01 30:31:43
TRACK 09 AUDIO
TITLE "Stronger"
PERFORMER "Faith Hill"
INDEX 01 34:19:69
TRACK 10 AUDIO
TITLE "If This Is The End"
PERFORMER "Faith Hill"
INDEX 01 38:33:54
TRACK 11 AUDIO
TITLE "This Is Me"
PERFORMER "Faith Hill"
INDEX 01 43:29:13
TRACK 12 AUDIO
TITLE "Back To You"
PERFORMER "Faith Hill"
INDEX 01 48:33:40
TRACK 13 AUDIO
TITLE "I Think I Will"
PERFORMER "Faith Hill"
INDEX 01 53:09:36
TRACK 14 AUDIO
TITLE "You're Still Here"
PERFORMER "Faith Hill"
INDEX 01 57:17:66
[свернуть]

Лог проверки качества

AUDIOCHECKER v2.0 beta (build 457) - by Dester - [Ссылки могут видеть только зарегистрированные и активированные пользователи.]
[Only registered and activated users can see links.]
~~~~~~~~~~~~~~~~~~~~~~~~~~~~~~~~~~
-=== НЕ РЕДАКТИРУЙТЕ ЭТОТ ФАЙЛ! ===-

Путь: ...\2002 - Cry [9 48001-2]

1 -=- Faith Hill - Cry.flac -=- CDDA (100%)

82059636
[свернуть]

Спектр частот

[свернуть]

Скачать Faith Hill - Cry

[Ссылки могут видеть только зарегистрированные и активированные пользователи.]
[Only registered and activated users can see links.]

password: sergych
[свернуть]
My opinion of release: 8/10
__________________
TAIFUN.Wings of Soul

Вверх
3 пользователя(ей) сказали cпасибо:
aleks601409 (14.09.2020), Lighting1981 (15.11.2017), swint68 (17.02.2016)
 
  #2
Старый 14.09.2020, 06:03
aleks601409
Пользователь
Досье
 
Аватар для aleks601409
По умолчанию Re: Faith Hill - Cry

отличный альбом

Вверх
Пользователь сказал cпасибо:
sergych (15.09.2020)
Похожие темы
Тема Автор Раздел Ответов Последнее сообщение
Альбом Faith Hill - It Matters To Me sergych Country 0 02.05.2015 08:48
Альбом Faith Hill - Breathe sergych Country 0 17.04.2015 16:38
Саундтрек Silent Hill: Downpour PUPOKIN Саундтреки 0 19.03.2012 09:13
Саундтрек Silent Hill: Zero PUPOKIN Саундтреки 1 24.10.2009 10:21
Саундтрек Silent Hill 4 альбома SERAF Саундтреки 0 24.10.2009 10:17


Метки
2002 , ballads , cry , faith hill , pop

Опции темы

Ваши права в разделе
Вы не можете создавать новые темы
Вы не можете отвечать в темах
Вы не можете прикреплять вложения
Вы не можете редактировать свои сообщения

Быстрый переход


Текущее время: 23:48. Часовой пояс GMT +3.

© 2008 - 2020 Taifun With Song
Powered by vBulletin® Version 3.8.10
Copyright ©2000 - 2020, vBulletin Solutions, Inc. Перевод: zCarot
При поддержке NIC.UA
Яндекс.Метрика