TAIFUN With Song - качественная и редкая музыка
Навигация
А знаете ли Вы, что...
Горький и Шаляпин пробовались в хор!
«Шаляпин и Горький практически в одно и то же время пробовались в хор. Горького взяли, Шаляпина нет.»
 
Опции темы

  #1
Старый 14.03.2015, 07:19
sergych
Координатор
Досье
 
Аватар для sergych
FLAC Cliff Richard - Two's Company. The Duets


2006 - Cliff Richard - Two's Company. The Duets




Исполнитель/Artist: Cliff Richard
Альбом/Album: Two's Company. The Duets
Год/Year: 2006
Жанр/Genre: Pop, pop rock
Страна/Country: Европа
Рекорд-лейбл/Record label: EMI Records
Номер в каталоге/Catalogue #: 0094637707227
Формат/Format: Free Lossless Audio Codec (*.flac)
Качество/Quality: Lossless
Тип рипа/RIP Type: image+.cue
Продолжительность/Length: 00:52:33
Источник/Source: Собственный рип
Размер/Size: 422.1 MB

Сканы в комплекте

Треклист

01. Move It (Featuring Brian May & Brian Bennett) [0:04:07.37]
02. Anyone Who Had A Heart (Featuring Dionne Warwick) [0:03:30.13]
03. Miss You Nights (Featuring G4) [0:03:56.29]
04. Yesterday Once More (Featuring Daniel O' Donnell) [0:04:05.02]
05. She Means Nothing To Me (Featuring Phil Everly) [0:03:36.47]
06. All I Ask Of You (Featuring Sarah Brightman) [0:04:10.36]
07. Let There Be Love (Featuring Matt Monro) [0:03:14.66]
08. Throw Down A Line (Featuring Hank Marvin) [0:02:49.38]
09. Fields Of Gold (Featuring Barry Gibb) [0:03:21.67]
10. Up Where We Belong (Featuring Anne Murray) [0:04:29.38]
11. Slow Rivers (Featuring Elton John) [0:03:11.44]
12. Suddenly (Featuring Olivia Newton-John) [0:04:01.66]
13. Danny Boy (Featuring Helmut Lotti) [0:03:56.47]
14. Reunited (Featuring Lulu) [0:04:00.50]
[свернуть]

youtube.com

[свернуть]

EAC лог

Exact Audio Copy V1.0 beta 3 from 29. August 2011

EAC extraction logfile from 12. March 2015, 1:04

Cliff Richard / Two's Company. The Duets

Used drive : ATAPI iHAS124 D Adapter: 0 ID: 2

Read mode : Secure
Utilize accurate stream : Yes
Defeat audio cache : Yes
Make use of C2 pointers : No

Read offset correction : 6
Overread into Lead-In and Lead-Out : No
Fill up missing offset samples with silence : Yes
Delete leading and trailing silent blocks : No
Null samples used in CRC calculations : Yes
Used interface : Installed external ASPI interface

Used output format : User Defined Encoder
Selected bitrate : 1024 kBit/s
Quality : High
Add ID3 tag : No
Command line compressor : C:\Program Files (x86)\Exact Audio Copy\Flac\flac.exe
Additional command line options : -6 -V -T "ARTIST=%artist%" -T "TITLE=%title%" -T "ALBUM=%albumtitle%" -T "DATE=%year%" -T "TRACKNUMBER=%tracknr%" -T "GENRE=%genre%" -T "COMMENT=%comment%" -T "BAND=%albuminterpret%" -T "COMPOSER=%composer%" %haslyrics%--tag-from-file=LYRICS="%lyricsfile%"%haslyrics% -T "DISCNUMBER=%cdnumber%" -T "TOTALDISCS=%totalcds%" -T "TOTALTRACKS=%numtracks%" %hascover%--picture="%coverfile%"%hascover% %source% -o %dest%


TOC of the extracted CD

Track | Start | Length | Start sector | End sector
---------------------------------------------------------
1 | 0:00.00 | 4:07.37 | 0 | 18561
2 | 4:07.37 | 3:30.13 | 18562 | 34324
3 | 7:37.50 | 3:56.29 | 34325 | 52053
4 | 11:34.04 | 4:05.02 | 52054 | 70430
5 | 15:39.06 | 3:36.47 | 70431 | 86677
6 | 19:15.53 | 4:10.36 | 86678 | 105463
7 | 23:26.14 | 3:14.66 | 105464 | 120079
8 | 26:41.05 | 2:49.38 | 120080 | 132792
9 | 29:30.43 | 3:21.67 | 132793 | 147934
10 | 32:52.35 | 4:29.38 | 147935 | 168147
11 | 37:21.73 | 3:11.44 | 168148 | 182516
12 | 40:33.42 | 4:01.66 | 182517 | 200657
13 | 44:35.33 | 3:56.47 | 200658 | 218404
14 | 48:32.05 | 4:00.50 | 218405 | 236454


Range status and errors

Selected range

Filename C:\mm\Cliff Richard\2006 - Two's Company. The Duets [0094637707227]\Cliff Richard - Two's Company. The Duets.wav

Peak level 98.8 %
Extraction speed 8.8 X
Range quality 100.0 %
Test CRC 028F9F9A
Copy CRC 028F9F9A
Copy OK

No errors occurred


AccurateRip summary

Track 1 accurately ripped (confidence 15) [A39FB2BA] (AR v2)
Track 2 accurately ripped (confidence 15) [EAB0E095] (AR v2)
Track 3 accurately ripped (confidence 15) [E0A586EF] (AR v2)
Track 4 accurately ripped (confidence 15) [AAE0D993] (AR v2)
Track 5 accurately ripped (confidence 15) [7E620295] (AR v2)
Track 6 accurately ripped (confidence 15) [8CDB22DC] (AR v2)
Track 7 accurately ripped (confidence 15) [F204CDA1] (AR v2)
Track 8 accurately ripped (confidence 15) [6FE94956] (AR v2)
Track 9 accurately ripped (confidence 15) [40C8E3C7] (AR v2)
Track 10 accurately ripped (confidence 15) [D9747BAD] (AR v2)
Track 11 accurately ripped (confidence 15) [316A05A8] (AR v2)
Track 12 accurately ripped (confidence 15) [E42010B6] (AR v2)
Track 13 accurately ripped (confidence 15) [2CB8DB9D] (AR v2)
Track 14 accurately ripped (confidence 15) [3D81211D] (AR v2)

All tracks accurately ripped

End of status report
[свернуть]

Файл CUE

REM GENRE Pop
REM DATE 2006
REM DISCID D00C500E
REM COMMENT "ExactAudioCopy v1.0b3"
PERFORMER "Cliff Richard"
TITLE "Two's Company. The Duets"
FILE "Cliff Richard - Two's Company. The Duets.flac" WAVE
TRACK 01 AUDIO
TITLE "Move It (Featuring Brian May & Brian Bennett)"
PERFORMER "Cliff Richard"
INDEX 01 00:00:00
TRACK 02 AUDIO
TITLE "Anyone Who Had A Heart (Featuring Dionne Warwick)"
PERFORMER "Cliff Richard"
INDEX 00 04:05:62
INDEX 01 04:07:37
TRACK 03 AUDIO
TITLE "Miss You Nights (Featuring G4)"
PERFORMER "Cliff Richard"
INDEX 00 07:36:30
INDEX 01 07:37:50
TRACK 04 AUDIO
TITLE "Yesterday Once More (Featuring Daniel O' Donnell)"
PERFORMER "Cliff Richard"
INDEX 00 11:32:19
INDEX 01 11:34:04
TRACK 05 AUDIO
TITLE "She Means Nothing To Me (Featuring Phil Everly)"
PERFORMER "Cliff Richard"
INDEX 00 15:38:06
INDEX 01 15:39:06
TRACK 06 AUDIO
TITLE "All I Ask Of You (Featuring Sarah Brightman)"
PERFORMER "Cliff Richard"
INDEX 00 19:14:53
INDEX 01 19:15:53
TRACK 07 AUDIO
TITLE "Let There Be Love (Featuring Matt Monro)"
PERFORMER "Cliff Richard"
INDEX 00 23:24:14
INDEX 01 23:26:14
TRACK 08 AUDIO
TITLE "Throw Down A Line (Featuring Hank Marvin)"
PERFORMER "Cliff Richard"
INDEX 00 26:40:70
INDEX 01 26:41:05
TRACK 09 AUDIO
TITLE "Fields Of Gold (Featuring Barry Gibb)"
PERFORMER "Cliff Richard"
INDEX 00 29:28:43
INDEX 01 29:30:43
TRACK 10 AUDIO
TITLE "Up Where We Belong (Featuring Anne Murray)"
PERFORMER "Cliff Richard"
INDEX 00 32:51:35
INDEX 01 32:52:35
TRACK 11 AUDIO
TITLE "Slow Rivers (Featuring Elton John)"
PERFORMER "Cliff Richard"
INDEX 00 37:20:73
INDEX 01 37:21:73
TRACK 12 AUDIO
TITLE "Suddenly (Featuring Olivia Newton-John)"
PERFORMER "Cliff Richard"
INDEX 00 40:31:57
INDEX 01 40:33:42
TRACK 13 AUDIO
TITLE "Danny Boy (Featuring Helmut Lotti)"
PERFORMER "Cliff Richard"
INDEX 00 44:33:58
INDEX 01 44:35:33
TRACK 14 AUDIO
TITLE "Reunited (Featuring Lulu)"
PERFORMER "Cliff Richard"
INDEX 00 48:30:05
INDEX 01 48:32:05
[свернуть]

Лог проверки качества

AUDIOCHECKER v2.0 beta (build 457) - by Dester - [Ссылки могут видеть только зарегистрированные и активированные пользователи.]
[Only registered and activated users can see links.]
~~~~~~~~~~~~~~~~~~~~~~~~~~~~~~~~~~
-=== НЕ РЕДАКТИРУЙТЕ ЭТОТ ФАЙЛ! ===-

Путь: ...\2006 - Two's Company. The Duets [0094637707227]

1 -=- Cliff Richard - Two's Company. The Duets.flac -=- CDDA (100%)

234314932
[свернуть]

Спектр частот

[свернуть]

Скачать Cliff Richard - Two's Company. The Duets

[Ссылки могут видеть только зарегистрированные и активированные пользователи.]
[Only registered and activated users can see links.]

password: sergych
[свернуть]
My opinion of release: 8/10
__________________
TAIFUN.Wings of Soul

Вверх
Пользователь сказал cпасибо:
aleks601409 (14.09.2020)
 
  #2
Старый 14.09.2020, 07:49
aleks601409
Пользователь
Досье
 
Аватар для aleks601409
По умолчанию Re: Cliff Richard - Two's Company. The Duets

ПРЕКРАСНЫЕ ЗАПИСИ

Вверх
Пользователь сказал cпасибо:
sergych (15.09.2020)
Похожие темы
Тема Автор Раздел Ответов Последнее сообщение
Сборник Cliff Richard - Christmas With Cliff sergych Зарубежная Поп-Музыка 0 16.01.2015 17:43
Сборник Cliff Richard - Cliff Sings sergych Rock`n`Roll 0 03.07.2014 16:59
Альбом Cliff Richard & The Drifters - Cliff sergych Rock`n`Roll 0 26.01.2009 00:41
Биография Cliff Richard sergych POP [FAQ] 0 24.01.2009 16:28
Сборник Cliff Richard - Cliff's 50th Anniversary Album sergych Зарубежная Поп-Музыка 0 24.01.2009 15:41


Метки
2006 , cliff richard , pop , pop rock , two's company. the duets

Опции темы

Ваши права в разделе
Вы не можете создавать новые темы
Вы не можете отвечать в темах
Вы не можете прикреплять вложения
Вы не можете редактировать свои сообщения

Быстрый переход


Текущее время: 22:25. Часовой пояс GMT +3.

© 2008 - 2020 Taifun With Song
Powered by vBulletin® Version 3.8.10
Copyright ©2000 - 2020, vBulletin Solutions, Inc. Перевод: zCarot
При поддержке NIC.UA
Яндекс.Метрика