TAIFUN With Song - качественная и редкая музыка
Навигация
Jazz и Blues Гибкая ритмика, импровизационное начало, гармонии и мелодии - все это Jazz. Blues - жизнеутверждающая музыка, рожденная из душевной боли

А знаете ли Вы, что...
Для прослушивания какого альбома нужно иметь четыре аудиосистемы?
«Восьмой студийный альбом альтернативной группы The Flaming Lips под названием Zaireeka был выпущен на 4 CD. Особенность альбома в том, что каждая композиция разделена на четыре составляющих, и для того чтобы прослушать песни в полной версии, нужно включить одновременно все диски на четырёх разных аудиосистемах. Слушатели также могут экспериментировать, проигрывая не все диски сразу, а в любой комбинации из двух или трёх штук.»
 
Опции темы

  #1
Старый 14.09.2013, 19:24
sergych
Координатор
Досье
 
Аватар для sergych
FLAC Zaz - Sans Tsu Tsou (En Concert)


2011 - Zaz - Sans Tsu Tsou (En Concert)




Исполнитель/Artist: Zaz
Альбом/Album: Sans Tsu Tsou (En Concert)
Год/Year: 2011
Жанр/Genre: jazz, blues, soul, R&B
Страна/Country: Россия
Рекорд-лейбл/Record label: Play On / СР Дистрибуция
Номер в каталоге/Catalogue #: 88691951262
Формат/Format: Free Lossless Audio Codec (*.flac)
Качество/Quality: Lossless
Тип рипа/RIP Type: image+.cue


Продолжительность/Length: 01:17:19
Источник/Source: Собственный рип
Размер/Size: 500.8 MB

Сканы в комплекте

Треклист

01. Les Passants [0:04:44.62]
02. J'Aime À Nouveau [0:04:34.64]
03. Le Long De La Route [0:05:04.62]
04. Prends Garde À Ta Langue [0:03:41.07]
05. Dans Ma Rue [0:05:26.27]
06. Port Coton [0:03:03.54]
07. La Fée [0:05:07.56]
08. Ma Folie [0:05:52.56]
09. Trop Sensible [0:04:01.63]
10. J'arrive Pas [0:04:40.47]
11. Éblouie Par La Nuit [0:03:06.72]
12. Je Veux [0:08:00.51]
13. Je Saute Partout [0:03:43.64]
14. Pray The Sunshine [0:04:08.56]
15. Ni Oui Ni Non [0:06:35.73]
16. Aux Détenteurs [0:05:24.31]
[свернуть]

Превью на YouTube

[свернуть]

Исполнители/Performers

Liner Notes – Zaz
Bass, Contrabass – Ilan Abou
Drums – David Maurin
Guitar – Benoît Simon, Guillaume "Guichto" Juhel
Keyboards, Accordion – Denis Clavaizolle
Saxophone – Cédric Ricard
Trombone – Daniel Zimmermann
Trumpet – Richard Blanchet
[свернуть]

EAC лог

Exact Audio Copy V1.5 from 20. February 2020

EAC extraction logfile from 7. September 2020, 20:09

ZAZ / Sans Tsu Tsou (En Concert)

Used drive : PIONEER DVD-RW DVR-220L Adapter: 1 ID: 0

Read mode : Secure
Utilize accurate stream : Yes
Defeat audio cache : Yes
Make use of C2 pointers : No

Read offset correction : 6
Overread into Lead-In and Lead-Out : No
Fill up missing offset samples with silence : Yes
Delete leading and trailing silent blocks : No
Null samples used in CRC calculations : Yes
Used interface : Installed external ASPI interface

Used output format : User Defined Encoder
Selected bitrate : 1024 kBit/s
Quality : High
Add ID3 tag : No
Command line compressor : C:\Program Files (x86)\Exact Audio Copy\Flac\flac.exe
Additional command line options : -6 -V -T "ARTIST=%artist%" -T "TITLE=%title%" -T "ALBUM=%albumtitle%" -T "DATE=%year%" -T "TRACKNUMBER=%tracknr%" -T "GENRE=%genre%" -T "COMMENT=%comment%" -T "BAND=%albuminterpret%" -T "ALBUMARTIST=%albuminterpret%" -T "COMPOSER=%composer%" %haslyrics%--tag-from-file=LYRICS="%lyricsfile%"%haslyrics% -T "DISCNUMBER=%cdnumber%" -T "TOTALDISCS=%totalcds%" -T "TOTALTRACKS=%numtracks%" %hascover%--picture="%coverfile%"%hascover% %source% -o %dest%


TOC of the extracted CD

Track | Start | Length | Start sector | End sector
---------------------------------------------------------
1 | 0:00.00 | 4:44.62 | 0 | 21361
2 | 4:44.62 | 4:34.64 | 21362 | 41975
3 | 9:19.51 | 5:04.62 | 41976 | 64837
4 | 14:24.38 | 3:41.07 | 64838 | 81419
5 | 18:05.45 | 5:26.27 | 81420 | 105896
6 | 23:31.72 | 3:03.54 | 105897 | 119675
7 | 26:35.51 | 5:07.56 | 119676 | 142756
8 | 31:43.32 | 5:52.56 | 142757 | 169212
9 | 37:36.13 | 4:01.63 | 169213 | 187350
10 | 41:38.01 | 4:40.47 | 187351 | 208397
11 | 46:18.48 | 3:06.72 | 208398 | 222419
12 | 49:25.45 | 8:00.51 | 222420 | 258470
13 | 57:26.21 | 3:43.64 | 258471 | 275259
14 | 61:10.10 | 4:08.56 | 275260 | 293915
15 | 65:18.66 | 6:35.73 | 293916 | 323613
16 | 71:54.64 | 5:24.31 | 323614 | 347944


Range status and errors

Selected range

Filename C:\mm\ZAZ\2011 - Sans Tsu Tsou [88691951262]\ZAZ - Sans Tsu Tsou (En Concert).wav

Peak level 100.0 %
Extraction speed 8.3 X
Range quality 100.0 %
Test CRC 81E6714C
Copy CRC 81E6714C
Copy OK

No errors occurred


AccurateRip summary

Track 1 accurately ripped (confidence 3) [E8FB7CB5] (AR v2)
Track 2 accurately ripped (confidence 3) [7F7AE6EA] (AR v2)
Track 3 accurately ripped (confidence 3) [9E68BE72] (AR v2)
Track 4 accurately ripped (confidence 3) [C5CE24D8] (AR v2)
Track 5 accurately ripped (confidence 3) [D9A21084] (AR v2)
Track 6 accurately ripped (confidence 3) [050F0F69] (AR v2)
Track 7 accurately ripped (confidence 3) [0C23906C] (AR v2)
Track 8 accurately ripped (confidence 3) [2191C6CE] (AR v2)
Track 9 accurately ripped (confidence 3) [CF09B748] (AR v2)
Track 10 accurately ripped (confidence 3) [233D2C85] (AR v2)
Track 11 accurately ripped (confidence 3) [1C7C4F81] (AR v2)
Track 12 accurately ripped (confidence 3) [D515F35F] (AR v2)
Track 13 accurately ripped (confidence 3) [328278D5] (AR v2)
Track 14 accurately ripped (confidence 3) [4FFFA96B] (AR v2)
Track 15 accurately ripped (confidence 3) [69EACFDF] (AR v2)
Track 16 accurately ripped (confidence 2) [E7409EE2] (AR v2)

All tracks accurately ripped

End of status report

---- CUETools DB Plugin V2.1.6

[CTDB TOCID: RIO1GtYv32tqrTSZDavrirtDmpI-] found
Submit result: RIO1GtYv32tqrTSZDavrirtDmpI- has been confirmed
Track | CTDB Status
1 | (443/478) Accurately ripped
2 | (321/478) Accurately ripped
3 | (322/478) Accurately ripped
4 | (321/478) Accurately ripped
5 | (322/478) Accurately ripped
6 | (322/478) Accurately ripped
7 | (322/478) Accurately ripped
8 | (318/478) Accurately ripped
9 | (320/478) Accurately ripped
10 | (320/478) Accurately ripped
11 | (321/478) Accurately ripped
12 | (319/478) Accurately ripped
13 | (318/478) Accurately ripped
14 | (315/478) Accurately ripped
15 | (311/478) Accurately ripped
16 | (304/478) Accurately ripped
[свернуть]

Файл CUE

REM GENRE Chanson
REM DATE 2011
REM DISCID F2121F10
REM COMMENT "ExactAudioCopy v1.5"
PERFORMER "ZAZ"
TITLE "Sans Tsu Tsou (En Concert)"
REM COMPOSER ""
FILE "ZAZ - Sans Tsu Tsou (En Concert).flac" WAVE
TRACK 01 AUDIO
TITLE "Les Passants"
PERFORMER "ZAZ"
REM COMPOSER ""
INDEX 01 00:00:00
TRACK 02 AUDIO
TITLE "J'Aime À Nouveau"
PERFORMER "ZAZ"
REM COMPOSER ""
INDEX 01 04:44:62
TRACK 03 AUDIO
TITLE "Le Long De La Route"
PERFORMER "ZAZ"
REM COMPOSER ""
INDEX 01 09:19:51
TRACK 04 AUDIO
TITLE "Prends Garde À Ta Langue"
PERFORMER "ZAZ"
REM COMPOSER ""
INDEX 01 14:24:38
TRACK 05 AUDIO
TITLE "Dans Ma Rue"
PERFORMER "ZAZ"
REM COMPOSER ""
INDEX 01 18:05:45
TRACK 06 AUDIO
TITLE "Port Coton"
PERFORMER "ZAZ"
REM COMPOSER ""
INDEX 01 23:31:72
TRACK 07 AUDIO
TITLE "La Fée"
PERFORMER "ZAZ"
REM COMPOSER ""
INDEX 01 26:35:51
TRACK 08 AUDIO
TITLE "Ma Folie"
PERFORMER "ZAZ"
REM COMPOSER ""
INDEX 01 31:43:32
TRACK 09 AUDIO
TITLE "Trop Sensible"
PERFORMER "ZAZ"
REM COMPOSER ""
INDEX 01 37:36:13
TRACK 10 AUDIO
TITLE "J'arrive Pas"
PERFORMER "ZAZ"
REM COMPOSER ""
INDEX 01 41:38:01
TRACK 11 AUDIO
TITLE "Eblouie Par La Nuit"
PERFORMER "ZAZ"
REM COMPOSER ""
INDEX 01 46:18:48
TRACK 12 AUDIO
TITLE "Je Veux"
PERFORMER "ZAZ"
REM COMPOSER ""
INDEX 01 49:25:45
TRACK 13 AUDIO
TITLE "Je Saute Partout"
PERFORMER "ZAZ"
REM COMPOSER ""
INDEX 01 57:26:21
TRACK 14 AUDIO
TITLE "Pray The Sunshine"
PERFORMER "ZAZ"
REM COMPOSER ""
INDEX 01 61:10:10
TRACK 15 AUDIO
TITLE "Ni Oui Ni Non"
PERFORMER "ZAZ"
REM COMPOSER ""
INDEX 01 65:18:66
TRACK 16 AUDIO
TITLE "Aux Détenteurs"
PERFORMER "ZAZ"
REM COMPOSER ""
INDEX 01 71:54:64
[свернуть]

Лог проверки качества

AUDIOCHECKER v2.0 beta (build 457) - by Dester - [Ссылки могут видеть только зарегистрированные и активированные пользователи.]
[Only registered and activated users can see links.]
~~~~~~~~~~~~~~~~~~~~~~~~~~~~~~~~~~
-=== НЕ РЕДАКТИРУЙТЕ ЭТОТ ФАЙЛ! ===-

Путь: ...\2011 - Sans Tsu Tsou [88691951262]

1 -=- ZAZ - Sans Tsu Tsou (En Concert).flac -=- CDDA (100%)

120420836

----------

PERFORMER: auCDtect Task Manager, ver. 1.6.0 RC1 build 1.6.0.1
Copyright © 2008-2010 y-soft. All rights reserved
[Ссылки могут видеть только зарегистрированные и активированные пользователи.]
[Only registered and activated users can see links.]

ANALYZER: auCDtect: CD records authenticity detector, version 0.8.2
Copyright © 2004 Oleg Berngardt. All rights reserved.
Copyright © 2004 Alexander Djourik. All rights reserved.


FILE: ZAZ - Sans Tsu Tsou (En Concert).flac
Size: 510370401 Hash: 0B2D16012E5CC09224B415802DF6FAAB Accuracy: -m8
Conclusion: CDDA 100%
Signature: 2A1F058FD49DBA4AD4B696977EC9AF138C487711
[свернуть]

Отчёт Dynamic Range Meter

Код:
foobar2000 1.6 / Замер динамического диапазона (DR) 1.1.1
Дата отчёта:		2020-09-11 09:41:21

--------------------------------------------------------------------------------
Анализ:   ZAZ / Sans Tsu Tsou (En Concert)
--------------------------------------------------------------------------------

DR         Пики         RMS           Продолжительность трека
--------------------------------------------------------------------------------
DR7        0.00 дБ    -9.04 дБ      4:45 01-Les Passants
DR6        0.00 дБ    -7.95 дБ      4:35 02-J'Aime ГЂ Nouveau
DR6        0.00 дБ    -7.81 дБ      5:05 03-Le Long De La Route
DR6        0.00 дБ    -6.82 дБ      3:41 04-Prends Garde ГЂ Ta Langue
DR8        0.00 дБ   -11.66 дБ      5:26 05-Dans Ma Rue
DR9       -0.02 дБ   -10.64 дБ      3:04 06-Port Coton
DR7        0.00 дБ    -9.38 дБ      5:08 07-La FГ©e
DR7        0.00 дБ    -9.32 дБ      5:53 08-Ma Folie
DR10       0.00 дБ   -13.17 дБ      4:02 09-Trop Sensible
DR9        0.00 дБ   -12.74 дБ      4:41 10-J'arrive Pas
DR8        0.00 дБ   -10.19 дБ      3:07 11-Eblouie Par La Nuit
DR7        0.00 дБ    -8.31 дБ      8:01 12-Je Veux
DR7        0.00 дБ    -8.47 дБ      3:44 13-Je Saute Partout
DR7        0.00 дБ    -8.66 дБ      4:09 14-Pray The Sunshine
DR6        0.00 дБ    -8.66 дБ      6:36 15-Ni Oui Ni Non
DR7       -0.01 дБ    -8.41 дБ      5:24 16-Aux DГ©tenteurs
--------------------------------------------------------------------------------

Количество треков:	16
Реальные значения DR:	DR7

Частота:			44100 Гц
Каналов:			2
Разрядность: 		16
Битрейт:			880 кбит/с
Кодек:			FLAC
================================================================================
[свернуть]

Спектр частот

[свернуть]

Скачать Zaz - Sans Tsu Tsou (En Concert)

[Ссылки могут видеть только зарегистрированные и активированные пользователи.]
[Only registered and activated users can see links.]

password: sergych
[свернуть]

Контрольная сумма (хеш-сумма) архива

MD5: 74b52c35166d6a3baab9f059e8656e81
[свернуть]
My opinion of release: 10/10
__________________
TAIFUN.Wings of Soul


Последний раз редактировалось sergych, 11.09.2020 в 08:04. Причина: сменил рип
Вверх
Пользователь сказал cпасибо:
TAIFUN (15.09.2020)
 
  #2
Старый 11.09.2020, 08:06
sergych
Координатор
Досье
 
Аватар для sergych
По умолчанию Re: Zaz - Sans Tsu Tsou (En Concert)

заменил потрековый рип образом, добавил отсутствующий скан матрицы, дооформление темы
__________________
TAIFUN.Wings of Soul

Вверх
Пользователь сказал cпасибо:
TAIFUN (15.09.2020)
Похожие темы
Тема Автор Раздел Ответов Последнее сообщение
Live Oscar Peterson - The Paris Concert sergych Jazz и Blues 0 08.04.2013 07:37
Релиз Sans Chichi - Mute 'n Muse PUPOKIN Jazz и Blues 0 09.07.2012 09:16
Саундтрек Le Concert PUPOKIN Саундтреки 0 22.02.2010 09:37
Альбом Paul Mauriat - Gold Concert PUPOKIN Instrumental 0 06.05.2009 11:02
Альбом Bob Marley - The Final Concert PUPOKIN Reggae 0 15.03.2009 12:53


Метки
2011 , blues , jazz , pop , r&b , sans tsu tsou (en concert) , soul , zaz

Опции темы

Ваши права в разделе
Вы не можете создавать новые темы
Вы не можете отвечать в темах
Вы не можете прикреплять вложения
Вы не можете редактировать свои сообщения

Быстрый переход


Текущее время: 22:42. Часовой пояс GMT +3.

© 2008 - 2020 Taifun With Song
Powered by vBulletin® Version 3.8.10
Copyright ©2000 - 2020, vBulletin Solutions, Inc. Перевод: zCarot
При поддержке NIC.UA
Яндекс.Метрика