TAIFUN With Song - качественная и редкая музыка
Навигация
Jazz и Blues Гибкая ритмика, импровизационное начало, гармонии и мелодии - все это Jazz. Blues - жизнеутверждающая музыка, рожденная из душевной боли

А знаете ли Вы, что...
Какие предметы лежат в склепе Боба Марли?
«Знаменитый ямайский регги-музыкант Боб Марли завещал положить в свой посмертный склеп гитару «Les Paul», футбольный мяч, Библию и свёрток марихуаны.»
 
Опции темы

  #1
Старый 04.08.2013, 20:38
sergych
Координатор
Досье
 
Аватар для sergych
FLAC ZAZ - Recto Verso


2013 - ZAZ - Recto Verso




Исполнитель/Artist: ZAZ
Альбом/Album: Recto Verso
Год/Year: 2013
Жанр/Genre: Pop, jazz, blues, soul, R&B
Страна/Country: Россия
Рекорд-лейбл/Record label: Play On / СР Дистрибуция
Номер в каталоге/Catalogue #: 88883725652
Формат/Format: Free Lossless Audio Codec (*.flac)
Качество/Quality: Lossless
Тип рипа/RIP Type: image+.cue


Продолжительность/Length: 00:41:20
Источник/Source: Собственный рип
Размер/Size: 283.8 MB

Сканы в комплекте

Треклист

01. On Ira [0:03:00.08]
02. Comme Ci, Comme Ça [0:02:45.01]
03. Gamine [0:03:10.25]
04. T'Attends Quo [0:03:20.38]
05. La Lessive [0:02:17.61]
06. J'ai Tant Escamoté [0:03:44.32]
07. Déterre [0:02:41.43]
08. Toujours [0:03:11.03]
09. Si Je Perds [0:03:04.22]
10. Si [0:02:36.66]
11. Oublie Loulou [0:02:40.45]
12. Cette Journée [0:02:53.30]
13. Nous Debout [0:03:12.72]
14. La Lune [0:02:41.32]
[свернуть]

Превью на YouTube

[свернуть]

EAC лог

Exact Audio Copy V1.5 from 20. February 2020

EAC extraction logfile from 8. September 2020, 12:42

ZAZ / Recto Verso

Used drive : PIONEER DVD-RW DVR-220L Adapter: 1 ID: 0

Read mode : Secure
Utilize accurate stream : Yes
Defeat audio cache : Yes
Make use of C2 pointers : No

Read offset correction : 6
Overread into Lead-In and Lead-Out : No
Fill up missing offset samples with silence : Yes
Delete leading and trailing silent blocks : No
Null samples used in CRC calculations : Yes
Used interface : Installed external ASPI interface

Used output format : User Defined Encoder
Selected bitrate : 1024 kBit/s
Quality : High
Add ID3 tag : No
Command line compressor : C:\Program Files (x86)\Exact Audio Copy\Flac\flac.exe
Additional command line options : -6 -V -T "ARTIST=%artist%" -T "TITLE=%title%" -T "ALBUM=%albumtitle%" -T "DATE=%year%" -T "TRACKNUMBER=%tracknr%" -T "GENRE=%genre%" -T "COMMENT=%comment%" -T "BAND=%albuminterpret%" -T "ALBUMARTIST=%albuminterpret%" -T "COMPOSER=%composer%" %haslyrics%--tag-from-file=LYRICS="%lyricsfile%"%haslyrics% -T "DISCNUMBER=%cdnumber%" -T "TOTALDISCS=%totalcds%" -T "TOTALTRACKS=%numtracks%" %hascover%--picture="%coverfile%"%hascover% %source% -o %dest%


TOC of the extracted CD

Track | Start | Length | Start sector | End sector
---------------------------------------------------------
1 | 0:00.00 | 3:00.08 | 0 | 13507
2 | 3:00.08 | 2:45.01 | 13508 | 25883
3 | 5:45.09 | 3:10.25 | 25884 | 40158
4 | 8:55.34 | 3:20.38 | 40159 | 55196
5 | 12:15.72 | 2:17.61 | 55197 | 65532
6 | 14:33.58 | 3:44.32 | 65533 | 82364
7 | 18:18.15 | 2:41.43 | 82365 | 94482
8 | 20:59.58 | 3:11.03 | 94483 | 108810
9 | 24:10.61 | 3:04.22 | 108811 | 122632
10 | 27:15.08 | 2:36.66 | 122633 | 134398
11 | 29:51.74 | 2:40.45 | 134399 | 146443
12 | 32:32.44 | 2:53.30 | 146444 | 159448
13 | 35:25.74 | 3:12.72 | 159449 | 173920
14 | 38:38.71 | 2:41.32 | 173921 | 186027


Range status and errors

Selected range

Filename C:\mm\ZAZ\2013 - Recto Verso [88883725652]\ZAZ - Recto Verso.wav

Peak level 100.0 %
Extraction speed 6.8 X
Range quality 99.9 %
Test CRC FEE0AE22
Copy CRC FEE0AE22
Copy OK

No errors occurred


AccurateRip summary

Track 1 accurately ripped (confidence 3) [FFDE20E0] (AR v2)
Track 2 accurately ripped (confidence 3) [168A1A8A] (AR v2)
Track 3 accurately ripped (confidence 3) [E14E6BD8] (AR v2)
Track 4 accurately ripped (confidence 3) [3A368DD2] (AR v2)
Track 5 accurately ripped (confidence 3) [026FBFB1] (AR v2)
Track 6 accurately ripped (confidence 3) [36F046A0] (AR v2)
Track 7 accurately ripped (confidence 3) [B7889809] (AR v2)
Track 8 accurately ripped (confidence 3) [4A1C91F5] (AR v2)
Track 9 accurately ripped (confidence 3) [D24AFEB3] (AR v2)
Track 10 accurately ripped (confidence 3) [BE106890] (AR v2)
Track 11 accurately ripped (confidence 3) [D4EEF648] (AR v2)
Track 12 accurately ripped (confidence 3) [8DAD7B75] (AR v2)
Track 13 accurately ripped (confidence 3) [FDF4A2E8] (AR v2)
Track 14 accurately ripped (confidence 3) [FCEF0477] (AR v2)

All tracks accurately ripped

End of status report

---- CUETools DB Plugin V2.1.6

[CTDB TOCID: pQ4TCs7YuPKHrM1DlrtdCTbvF5o-] found
Submit result: pQ4TCs7YuPKHrM1DlrtdCTbvF5o- has been confirmed
Track | CTDB Status
1 | (1259/1264) Accurately ripped
2 | (1259/1264) Accurately ripped
3 | (1259/1264) Accurately ripped
4 | (1256/1264) Accurately ripped
5 | (1259/1264) Accurately ripped
6 | (1258/1264) Accurately ripped
7 | (1260/1264) Accurately ripped
8 | (1258/1264) Accurately ripped
9 | (1257/1264) Accurately ripped
10 | (1259/1264) Accurately ripped
11 | (1258/1264) Accurately ripped
12 | (1259/1264) Accurately ripped
13 | (1259/1264) Accurately ripped
14 | (1256/1264) Accurately ripped
[свернуть]

Файл CUE

REM GENRE Chanson
REM DATE 2013
REM DISCID B209B00E
REM COMMENT "ExactAudioCopy v1.5"
PERFORMER "ZAZ"
TITLE "Recto Verso"
REM COMPOSER ""
FILE "ZAZ - Recto Verso.flac" WAVE
TRACK 01 AUDIO
TITLE "On Ira"
PERFORMER "ZAZ"
REM COMPOSER ""
INDEX 01 00:00:00
TRACK 02 AUDIO
TITLE "Comme Ci, Comme Ca"
PERFORMER "ZAZ"
REM COMPOSER ""
INDEX 00 02:58:38
INDEX 01 03:00:08
TRACK 03 AUDIO
TITLE "Gamine"
PERFORMER "ZAZ"
REM COMPOSER ""
INDEX 00 05:43:40
INDEX 01 05:45:09
TRACK 04 AUDIO
TITLE "T'Attends Quo"
PERFORMER "ZAZ"
REM COMPOSER ""
INDEX 00 08:53:65
INDEX 01 08:55:34
TRACK 05 AUDIO
TITLE "La Lessive"
PERFORMER "ZAZ"
REM COMPOSER ""
INDEX 00 12:14:27
INDEX 01 12:15:72
TRACK 06 AUDIO
TITLE "J'ai Tant Escamote"
PERFORMER "ZAZ"
REM COMPOSER ""
INDEX 00 14:32:14
INDEX 01 14:33:58
TRACK 07 AUDIO
TITLE "Deterre"
PERFORMER "ZAZ"
REM COMPOSER ""
INDEX 00 18:16:33
INDEX 01 18:18:15
TRACK 08 AUDIO
TITLE "Toujours"
PERFORMER "ZAZ"
REM COMPOSER ""
INDEX 00 20:57:27
INDEX 01 20:59:58
TRACK 09 AUDIO
TITLE "Si Je Perds"
PERFORMER "ZAZ"
REM COMPOSER ""
INDEX 00 24:09:17
INDEX 01 24:10:61
TRACK 10 AUDIO
TITLE "Si"
PERFORMER "ZAZ"
REM COMPOSER ""
INDEX 00 27:13:39
INDEX 01 27:15:08
TRACK 11 AUDIO
TITLE "Oublie Loulou"
PERFORMER "ZAZ"
REM COMPOSER ""
INDEX 00 29:50:30
INDEX 01 29:51:74
TRACK 12 AUDIO
TITLE "Cette Journee"
PERFORMER "ZAZ"
REM COMPOSER ""
INDEX 00 32:31:00
INDEX 01 32:32:44
TRACK 13 AUDIO
TITLE "Nous Debout"
PERFORMER "ZAZ"
REM COMPOSER ""
INDEX 00 35:24:30
INDEX 01 35:25:74
TRACK 14 AUDIO
TITLE "La Lune"
PERFORMER "ZAZ"
REM COMPOSER ""
INDEX 00 38:37:27
INDEX 01 38:38:71
[свернуть]

Лог проверки качества

AUDIOCHECKER v2.0 beta (build 457) - by Dester - [Ссылки могут видеть только зарегистрированные и активированные пользователи.]
[Only registered and activated users can see links.]
~~~~~~~~~~~~~~~~~~~~~~~~~~~~~~~~~~
-=== НЕ РЕДАКТИРУЙТЕ ЭТОТ ФАЙЛ! ===-

Путь: ...\2013 - Recto Verso [88883725652]

1 -=- ZAZ - Recto Verso.flac -=- CDDA (100%)

243680852

----------

PERFORMER: auCDtect Task Manager, ver. 1.6.0 RC1 build 1.6.0.1
Copyright © 2008-2010 y-soft. All rights reserved
[Ссылки могут видеть только зарегистрированные и активированные пользователи.]
[Only registered and activated users can see links.]

ANALYZER: auCDtect: CD records authenticity detector, version 0.8.2
Copyright © 2004 Oleg Berngardt. All rights reserved.
Copyright © 2004 Alexander Djourik. All rights reserved.


FILE: ZAZ - Recto Verso.flac
Size: 276909084 Hash: 40B9089AFB4F3A4BE2161A57C0DAE4A8 Accuracy: -m8
Conclusion: CDDA 100%
Signature: B76015D6DB7A6B2579A221C82D270C6DD49BF581
[свернуть]

Отчёт Dynamic Range Meter

Код:
foobar2000 1.6 / Замер динамического диапазона (DR) 1.1.1
Дата отчёта:		2020-09-08 12:52:22

--------------------------------------------------------------------------------
Анализ:   ZAZ / Recto Verso
--------------------------------------------------------------------------------

DR         Пики         RMS           Продолжительность трека
--------------------------------------------------------------------------------
DR6       -0.10 дБ    -7.43 дБ      3:00 01-On Ira
DR6       -0.07 дБ    -7.31 дБ      2:45 02-Comme Ci, Comme Ca
DR7       -0.08 дБ    -7.81 дБ      3:10 03-Gamine
DR7       -0.08 дБ    -9.18 дБ      3:21 04-T'Attends Quo
DR6       -1.50 дБ    -8.38 дБ      2:18 05-La Lessive
DR6       -0.07 дБ    -8.20 дБ      3:44 06-J'ai Tant Escamote
DR5       -0.07 дБ    -8.27 дБ      2:42 07-Deterre
DR5        0.00 дБ    -6.21 дБ      3:11 08-Toujours
DR5       -0.09 дБ    -7.27 дБ      3:04 09-Si Je Perds
DR5       -0.14 дБ    -8.25 дБ      2:37 10-Si
DR6       -0.08 дБ    -7.31 дБ      2:41 11-Oublie Loulou
DR6       -0.07 дБ    -7.49 дБ      2:53 12-Cette Journee
DR6       -0.09 дБ    -8.04 дБ      3:13 13-Nous Debout
DR6       -0.16 дБ    -8.04 дБ      2:41 14-La Lune
--------------------------------------------------------------------------------

Количество треков:	14
Реальные значения DR:	DR6

Частота:			44100 Гц
Каналов:			2
Разрядность: 		16
Битрейт:			893 кбит/с
Кодек:			FLAC
================================================================================
[свернуть]

Спектр частот

[свернуть]

Скачать ZAZ - Recto Verso

[Ссылки могут видеть только зарегистрированные и активированные пользователи.]
[Only registered and activated users can see links.]

password: sergych
[свернуть]

Контрольная сумма (хеш-сумма) архива

MD5: 004a0598dfdc63a70cb779f541d62da0
[свернуть]
My opinion of release: 9/10
__________________
TAIFUN.Wings of Soul


Последний раз редактировалось sergych, 12.09.2020 в 11:13. Причина: сменил рип
Вверх
Пользователь сказал cпасибо:
TAIFUN (15.09.2020)
 
  #2
Старый 12.09.2020, 11:14
sergych
Координатор
Досье
 
Аватар для sergych
По умолчанию Re: ZAZ - Recto Verso

заменил потрековый рип образом, добавил отсутствующий скан матрицы, дооформление темы
__________________
TAIFUN.Wings of Soul

Вверх
Пользователь сказал cпасибо:
TAIFUN (15.09.2020)

Метки
2013 , blues , jazz , pop , r&b , recto verso , soul , zaz

Опции темы

Ваши права в разделе
Вы не можете создавать новые темы
Вы не можете отвечать в темах
Вы не можете прикреплять вложения
Вы не можете редактировать свои сообщения

Быстрый переход


Текущее время: 00:11. Часовой пояс GMT +3.

© 2008 - 2020 Taifun With Song
Powered by vBulletin® Version 3.8.10
Copyright ©2000 - 2020, vBulletin Solutions, Inc. Перевод: zCarot
При поддержке NIC.UA
Яндекс.Метрика