TAIFUN With Song
Навигация
Вернуться   TAIFUN With Song > Music (обменник) > POP > Зарубежная Поп-Музыка
Расширенный поиск
А знаете ли Вы, что...
Какой пианист играл одной левой?
«Австрийский пианист Пауль Витгенштейн потерял правую руку в Первой Мировой войне, однако возобновил концертную карьеру и достиг исключительного мастерства, играя одной левой. Виртуозное владение пианистической техникой позволило Витгенштейну успешно исполнять сочинения, сопоставимые по сложности даже для пианиста с двумя руками.»
 
Опции темы

  #1
Старый 06.06.2015, 23:11
sergych
Координатор
Досье
 
Аватар для sergych
Релиз Whitney Houston - My Love Is Your Love


1998 - Whitney Houston - My Love Is Your Love




Исполнитель/Artist: Whitney Houston
Альбом/Album: My Love Is Your Love
Год/Year: 1998
Жанр/Genre: R&B, pop, soul
Страна/Country: Европа
Рекорд-лейбл/Record label: Arista Records
Номер в каталоге/Catalogue #: 07822 19037 2
Формат/Format: Free Lossless Audio Codec (*.flac)
Качество/Quality: Lossless
Тип рипа/RIP Type: image+.cue
Продолжительность/Length: 01:00:46
Источник/Source: Собственный рип
Размер/Size: 467.2 MB

Сканы в комплекте

Треклист

01. It's Not Right But It's Okay [0:04:52.20]
02. Heartbreak Hotel (Feat. Faith Evans & Kelly Price) [0:04:41.37]
03. My Love Is Your Love [0:04:21.43]
04. When You Believe (Duet With Mariah Carey) [0:04:32.67]
05. If I Told You That [0:04:37.00]
06. In My Business (Feat. Missy ''Misdemeanor'' Elliott) [0:03:27.23]
07. I Learned From The Best [0:04:20.70]
08. Oh Yes [0:06:47.37]
09. Get It Back [0:04:53.15]
10. Until You Come Back [0:04:52.60]
11. I Bow Out [0:04:30.70]
12. You'll Never Stand Alone [0:04:21.30]
13. I Was Made To Love Him [0:04:26.05]
[свернуть]

youtube.com

[свернуть]

Исполнители/Performers

Whitney Houston - vocals, background vocals, vocal arranger, exec producer
Dion Allen - background vocals, choir, chorus
Melodie Daniels - background vocals
Babyface - keyboard, background vocals
Jerry Barnes - bass
Sherrod Barnes - guitar
Tom Barney - bass vocals
Mary Ann Tatum - background vocals
Ali Boudris - acoustic guitar
Kelly Price - performer
Brandy Norwood - Background vocal (Get It Back)
Lynn Davis - background vocals, choir, chorus
Loren Dawson - strings
Sheila E. - percussion
Nathan East - bass vocals
Missy Elliott - vocals, background vocals, performer, writer
Toni Estes - backing vocals
Faith Evans - performer
David Foster - keyboard
Simon Franglen - synclavier
Sharlotte Gibson - backing vocals
Gavin Greenaway - conductor
Mariah Carey - performer
Daryl Hawes - backing vocals
Loris Holland - celeste
Rodney Jerkins - strings, keyboard, multiple instruments
Karlin - multiple instruments
Mark Kibble - background vocals, choir, chorus
Larry Kimpel - bass
Ricky Lawson - drums
Jeff Mironov - sitar
Bill K. Myers - conductor
Rob Paparozzi - harmonica
Robby Pardlo - background vocals
Peach - background vocals, choir, chorus
Greg Phillinganes - piano
Eric Rigler - pipe, human whistle
Bill Ross - conductor
Shanice - background vocals
Jamie Siegel - electric guitar
Syretha Smith - background vocals, choir, chorus
V. Jeffrey Smith - flute
Soulshock - multiple instruments
Tiffany Squire - background vocals
Damon Thomas - choir conductor
Michael Hart Thompson - electric guitar
Ryan Toby - backing vocals
Lloyd Turner - keyboard
[свернуть]

EAC лог

Exact Audio Copy V1.0 beta 3 from 29. August 2011

EAC extraction logfile from 5. June 2015, 22:35

Whitney Houston / My Love Is Your Love

Used drive : ATAPI iHAS124 D Adapter: 0 ID: 2

Read mode : Secure
Utilize accurate stream : Yes
Defeat audio cache : Yes
Make use of C2 pointers : No

Read offset correction : 6
Overread into Lead-In and Lead-Out : No
Fill up missing offset samples with silence : Yes
Delete leading and trailing silent blocks : No
Null samples used in CRC calculations : Yes
Used interface : Installed external ASPI interface

Used output format : User Defined Encoder
Selected bitrate : 1024 kBit/s
Quality : High
Add ID3 tag : No
Command line compressor : C:\Program Files (x86)\Exact Audio Copy\Flac\flac.exe
Additional command line options : -6 -V -T "ARTIST=%artist%" -T "TITLE=%title%" -T "ALBUM=%albumtitle%" -T "DATE=%year%" -T "TRACKNUMBER=%tracknr%" -T "GENRE=%genre%" -T "COMMENT=%comment%" -T "BAND=%albuminterpret%" -T "COMPOSER=%composer%" %haslyrics%--tag-from-file=LYRICS="%lyricsfile%"%haslyrics% -T "DISCNUMBER=%cdnumber%" -T "TOTALDISCS=%totalcds%" -T "TOTALTRACKS=%numtracks%" %hascover%--picture="%coverfile%"%hascover% %source% -o %dest%


TOC of the extracted CD

Track | Start | Length | Start sector | End sector
---------------------------------------------------------
1 | 0:00.00 | 4:52.20 | 0 | 21919
2 | 4:52.20 | 4:41.37 | 21920 | 43031
3 | 9:33.57 | 4:21.43 | 43032 | 62649
4 | 13:55.25 | 4:32.67 | 62650 | 83116
5 | 18:28.17 | 4:37.00 | 83117 | 103891
6 | 23:05.17 | 3:27.23 | 103892 | 119439
7 | 26:32.40 | 4:20.70 | 119440 | 139009
8 | 30:53.35 | 6:47.37 | 139010 | 169571
9 | 37:40.72 | 4:53.15 | 169572 | 191561
10 | 42:34.12 | 4:52.60 | 191562 | 213521
11 | 47:26.72 | 4:30.70 | 213522 | 233841
12 | 51:57.67 | 4:21.30 | 233842 | 253446
13 | 56:19.22 | 4:26.05 | 253447 | 273401


Range status and errors

Selected range

Filename C:\mm\Whitney Houston\1998 - My Love Is Your Love [07822 19037 2]\Whitney Houston - My Love Is Your Love.wav

Peak level 100.0 %
Extraction speed 9.7 X
Range quality 99.9 %
Test CRC 8BB3C82E
Copy CRC 8BB3C82E
Copy OK

No errors occurred


AccurateRip summary

Track 1 accurately ripped (confidence 200) [CB803C4B] (AR v2)
Track 2 accurately ripped (confidence 200) [EC0CD83C] (AR v2)
Track 3 accurately ripped (confidence 200) [B31FF916] (AR v2)
Track 4 accurately ripped (confidence 200) [2FEBB34E] (AR v2)
Track 5 accurately ripped (confidence 200) [821B8FAA] (AR v2)
Track 6 accurately ripped (confidence 200) [ED889ED1] (AR v2)
Track 7 accurately ripped (confidence 200) [DFA2C304] (AR v2)
Track 8 accurately ripped (confidence 200) [BB92B6A9] (AR v2)
Track 9 accurately ripped (confidence 200) [167A025D] (AR v2)
Track 10 accurately ripped (confidence 200) [0BAA76DC] (AR v2)
Track 11 accurately ripped (confidence 200) [0E40B62C] (AR v2)
Track 12 accurately ripped (confidence 200) [35D771E3] (AR v2)
Track 13 accurately ripped (confidence 200) [005D756D] (AR v2)

All tracks accurately ripped

End of status report
[свернуть]

Файл CUE

REM GENRE R&B
REM DATE 1998
REM DISCID C10E3D0D
REM COMMENT "ExactAudioCopy v1.0b3"
PERFORMER "Whitney Houston"
TITLE "My Love Is Your Love"
FILE "Whitney Houston - My Love Is Your Love.flac" WAVE
TRACK 01 AUDIO
TITLE "It's Not Right But It's Okay"
PERFORMER "Whitney Houston"
INDEX 01 00:00:00
TRACK 02 AUDIO
TITLE "Heartbreak Hotel (Feat. Faith Evans & Kelly Price)"
PERFORMER "Whitney Houston"
INDEX 01 04:52:20
TRACK 03 AUDIO
TITLE "My Love Is Your Love"
PERFORMER "Whitney Houston"
INDEX 01 09:33:57
TRACK 04 AUDIO
TITLE "When You Believe (Duet With Mariah Carey)"
PERFORMER "Whitney Houston"
INDEX 01 13:55:25
TRACK 05 AUDIO
TITLE "If I Told You That"
PERFORMER "Whitney Houston"
INDEX 01 18:28:17
TRACK 06 AUDIO
TITLE "In My Business (Feat. Missy ''Misdemeanor'' Elliott)"
PERFORMER "Whitney Houston"
INDEX 01 23:05:17
TRACK 07 AUDIO
TITLE "I Learned From The Best"
PERFORMER "Whitney Houston"
INDEX 01 26:32:40
TRACK 08 AUDIO
TITLE "Oh Yes"
PERFORMER "Whitney Houston"
INDEX 00 30:52:15
INDEX 01 30:53:35
TRACK 09 AUDIO
TITLE "Get It Back"
PERFORMER "Whitney Houston"
INDEX 01 37:40:72
TRACK 10 AUDIO
TITLE "Until You Come Back"
PERFORMER "Whitney Houston"
INDEX 01 42:34:12
TRACK 11 AUDIO
TITLE "I Bow Out"
PERFORMER "Whitney Houston"
INDEX 01 47:26:72
TRACK 12 AUDIO
TITLE "You'll Never Stand Alone"
PERFORMER "Whitney Houston"
INDEX 00 51:56:65
INDEX 01 51:57:67
TRACK 13 AUDIO
TITLE "I Was Made To Love Him"
PERFORMER "Whitney Houston"
INDEX 01 56:19:22
[свернуть]

Лог проверки качества

AUDIOCHECKER v2.0 beta (build 457) - by Dester - [Ссылки могут видеть только зарегистрированные и активированные пользователи.]
[Only registered and activated users can see links.]
~~~~~~~~~~~~~~~~~~~~~~~~~~~~~~~~~~
-=== НЕ РЕДАКТИРУЙТЕ ЭТОТ ФАЙЛ! ===-

Путь: ...\1998 - My Love Is Your Love [07822 19037 2]

1 -=- Whitney Houston - My Love Is Your Love.flac -=- CDDA (100%)

214585556
[свернуть]

Спектр частот

[свернуть]

Скачать Whitney Houston - My Love Is Your Love

[Ссылки могут видеть только зарегистрированные и активированные пользователи.]
[Only registered and activated users can see links.]

password: sergych
[свернуть]
My opinion of release: 9/10
__________________
TAIFUN.Wings of Soul


Последний раз редактировалось sergych, 30.12.2018 в 10:01. Причина: сменил ссылку из-за личеров
Вверх
Похожие темы
Тема Автор Раздел Ответов Последнее сообщение
Альбом Whitney Houston - I'm Your Baby Tonight sergych Зарубежная Поп-Музыка 0 31.05.2015 13:27
Сборник Whitney Houston - I Will Always Love You: The Best of Whitney Houston sergych Зарубежная Поп-Музыка 0 22.12.2014 20:12
Альбом Whitney Houston - Whitney sergych Зарубежная Поп-Музыка 0 22.12.2014 19:40
Релиз Angie Whitney - That's What Love Is All About PUPOKIN Jazz и Blues 0 09.01.2009 11:37


Метки
1998 , my love is your love , pop , r&b , soul , whitney houston

Опции темы

Ваши права в разделе
Вы не можете создавать новые темы
Вы не можете отвечать в темах
Вы не можете прикреплять вложения
Вы не можете редактировать свои сообщения

Быстрый переход



Текущее время: 00:43. Часовой пояс GMT +3.
Powered by vBulletin® Version 3.8.10
Copyright ©2000 - 2019, vBulletin Solutions, Inc. Перевод: zCarot
© 2008 - 2019 Taifun With Song
Яндекс.Метрика