TAIFUN With Song
Навигация
Folk (народная) Традиционная музыка отдельно взятого народа или культуры. Она несёт в себе частичку самобытности народа, отражает его ментальность.

А знаете ли Вы, что...
Почему оркестры американских театров не исполняют национальный марш?
««Звёзды и полосы навсегда» — это самый известный патриотический марш США. Тем не менее, в американских театрах и цирках оркестр никогда не исполнит эту мелодию просто так. Она зарезервирована в качестве сигнала бедствия о чрезвычайной ситуации, например, пожаре, чтобы персонал мог начать эвакуацию зрителей без паники.»
 
Опции темы

  #1
Старый 04.03.2015, 20:48
sergych
Координатор
Досье
 
Аватар для sergych
Релиз Cesaria Evora - Cesaria Evora & ...


2010 - Cesaria Evora - Cesaria Evora & ...




Исполнитель/Artist: Cesaria Evora
Альбом/Album: Cesaria Evora & ...
Год/Year: 2010
Жанр/Genre: Morna, Coladeira
Страна/Country: Россия
Рекорд-лейбл/Record label: Lusafrica / Ворнер Мьюзик
Номер в каталоге/Catalogue #: 88697813982
Формат/Format: Free Lossless Audio Codec (*.flac)
Качество/Quality: Lossless
Тип рипа/RIP Type: image+.cue
Продолжительность/Length: 01:17:39
Источник/Source: Собственный рип
Размер/Size: 516.4 MB

Сканы в комплекте

Треклист

01. Cesaria Evora & Bonga / Sodade [En Duo Avec Bonga] [0:04:54.00]
02. Cesaria Evora & Lura / Moda Bo [En Duo Avec Lura] [0:04:56.71]
03. Cesaria Evora & Marisa Monte / E Doce Morrer No Mar [En Duo Avec Marisa Monte] [0:03:38.49]
04. Cesaria Evora & Bernard Lavilliers / Elle Chante [En Duo Avec Bernard Lavilliers] [0:03:52.35]
05. Cesaria Evora & Ismael Lo / Africa Nossa [En Duo Avec Ismael Lo] [0:03:52.07]
06. Cesaria Evora & Salif Keita / Yamore [En Duo Avec Salif Keita - Radio Edit] [0:03:43.45]
07. Cesaria Evora & Compay Segundo / Lagrimas Negras [En Duo Avec Compay Segundo] [0:04:58.07]
08. Cesaria Evora & Adriano Celentano / Quel Casinha (Il Ragazzo Della Via Gluck) [En Duo Avec Adriano Celentano] [0:04:26.42]
09. Cesaria Evora & Chucho Waldes / Negue [En Duo Avec Chucho Waldes] [0:03:45.40]
10. Cesaria Evora & Caetano Veloso / Regresso [En Duo Avec Caetano Veloso] [0:03:58.04]
11. Cesaria Evora & Avec Kayah / Embarcacao [En Duo Avec Kayah - Radio Edit] [0:03:25.12]
12. Cesaria Evora & Cali / Um Pincelada [En Duo Avec Cali] [0:03:25.48]
13. Cesaria Evora & Tania Libertad / Historia De Un Amor [En Duo Avec Tania Libertad] [0:03:56.50]
14. Cesaria Evora & Pedro Guerra / Tiempo Y Silencio [En Duo Avec Pedro Guerra] [0:03:18.36]
15. Cesaria Evora & Bonnie Raitt / Crepuscular Solidao [En Duo Avec Bonnie Raitt] [0:05:30.64]
16. Cesaria Evora & Goran Bregovic / Ausencia [En Duo Avec Goran Bregovic] [0:03:47.33]
17. Cesaria Evora & Teofilo Chantre / Mae Pa Fidje [En Duo Avec Teofilo Chantre] [0:04:02.04]
18. Cesaria Evora & Eleftheria Arvanitaki / Sodade [En Duo Avec Eleftheria Arvanitaki - Live] [0:05:54.47]
19. Cesaria Evora & Caetano Veloso / Negue [En Duo Avec Caetano Veloso - Live] [0:02:11.14]
[свернуть]

youtube.com

[свернуть]

EAC лог

Exact Audio Copy V1.0 beta 3 from 29. August 2011

EAC extraction logfile from 4. March 2015, 20:03

Cesaria Evora / Cesaria Evora & ...

Used drive : ATAPI iHAS124 D Adapter: 0 ID: 2

Read mode : Secure
Utilize accurate stream : Yes
Defeat audio cache : Yes
Make use of C2 pointers : No

Read offset correction : 6
Overread into Lead-In and Lead-Out : No
Fill up missing offset samples with silence : Yes
Delete leading and trailing silent blocks : No
Null samples used in CRC calculations : Yes
Used interface : Installed external ASPI interface

Used output format : User Defined Encoder
Selected bitrate : 1024 kBit/s
Quality : High
Add ID3 tag : No
Command line compressor : C:\Program Files (x86)\Exact Audio Copy\Flac\flac.exe
Additional command line options : -6 -V -T "ARTIST=%artist%" -T "TITLE=%title%" -T "ALBUM=%albumtitle%" -T "DATE=%year%" -T "TRACKNUMBER=%tracknr%" -T "GENRE=%genre%" -T "COMMENT=%comment%" -T "BAND=%albuminterpret%" -T "COMPOSER=%composer%" %haslyrics%--tag-from-file=LYRICS="%lyricsfile%"%haslyrics% -T "DISCNUMBER=%cdnumber%" -T "TOTALDISCS=%totalcds%" -T "TOTALTRACKS=%numtracks%" %hascover%--picture="%coverfile%"%hascover% %source% -o %dest%


TOC of the extracted CD

Track | Start | Length | Start sector | End sector
---------------------------------------------------------
1 | 0:00.00 | 4:54.00 | 0 | 22049
2 | 4:54.00 | 4:56.71 | 22050 | 44320
3 | 9:50.71 | 3:38.49 | 44321 | 60719
4 | 13:29.45 | 3:52.35 | 60720 | 78154
5 | 17:22.05 | 3:52.07 | 78155 | 95561
6 | 21:14.12 | 3:43.45 | 95562 | 112331
7 | 24:57.57 | 4:58.07 | 112332 | 134688
8 | 29:55.64 | 4:26.42 | 134689 | 154680
9 | 34:22.31 | 3:45.40 | 154681 | 171595
10 | 38:07.71 | 3:58.04 | 171596 | 189449
11 | 42:06.00 | 3:25.12 | 189450 | 204836
12 | 45:31.12 | 3:25.48 | 204837 | 220259
13 | 48:56.60 | 3:56.50 | 220260 | 238009
14 | 52:53.35 | 3:18.36 | 238010 | 252895
15 | 56:11.71 | 5:30.64 | 252896 | 277709
16 | 61:42.60 | 3:47.33 | 277710 | 294767
17 | 65:30.18 | 4:02.04 | 294768 | 312921
18 | 69:32.22 | 5:54.47 | 312922 | 339518
19 | 75:26.69 | 2:11.14 | 339519 | 349357


Range status and errors

Selected range

Filename C:\mm\Cesaria Evora\2010 - Cesaria Evora & [88697813982]\Cesaria Evora - Cesaria Evora & ....wav

Peak level 100.0 %
Extraction speed 10.3 X
Range quality 100.0 %
Test CRC 62157E86
Copy CRC 62157E86
Copy OK

No errors occurred


AccurateRip summary

Track 1 cannot be verified as accurate (confidence 25) [E1672752], AccurateRip returned [5E473441] (AR v2)
Track 2 cannot be verified as accurate (confidence 25) [11FC986F], AccurateRip returned [0E7A41CF] (AR v2)
Track 3 cannot be verified as accurate (confidence 24) [926023AF], AccurateRip returned [04306039] (AR v2)
Track 4 cannot be verified as accurate (confidence 24) [6E2AA0B3], AccurateRip returned [8B905A7C] (AR v2)
Track 5 cannot be verified as accurate (confidence 24) [60D31074], AccurateRip returned [02832B1B] (AR v2)
Track 6 cannot be verified as accurate (confidence 24) [A022F6F9], AccurateRip returned [BAD87FA1] (AR v2)
Track 7 cannot be verified as accurate (confidence 24) [9E0D5E29], AccurateRip returned [6D270A69] (AR v2)
Track 8 cannot be verified as accurate (confidence 24) [B49AB228], AccurateRip returned [3474F8AB] (AR v2)
Track 9 cannot be verified as accurate (confidence 24) [538860C9], AccurateRip returned [DEE07565] (AR v2)
Track 10 cannot be verified as accurate (confidence 24) [3582D754], AccurateRip returned [5F5AEEE9] (AR v2)
Track 11 cannot be verified as accurate (confidence 24) [F5213530], AccurateRip returned [BFA2E333] (AR v2)
Track 12 cannot be verified as accurate (confidence 24) [50095DD7], AccurateRip returned [75A51BFC] (AR v2)
Track 13 cannot be verified as accurate (confidence 24) [F28D5790], AccurateRip returned [8EB3DC24] (AR v2)
Track 14 cannot be verified as accurate (confidence 24) [85796B4F], AccurateRip returned [6CE1BEC2] (AR v2)
Track 15 cannot be verified as accurate (confidence 24) [0295188A], AccurateRip returned [13747F10] (AR v2)
Track 16 cannot be verified as accurate (confidence 24) [C2725133], AccurateRip returned [41CC640A] (AR v2)
Track 17 cannot be verified as accurate (confidence 24) [7786178D], AccurateRip returned [35630177] (AR v2)
Track 18 cannot be verified as accurate (confidence 24) [218A49F9], AccurateRip returned [C55E365C] (AR v2)
Track 19 cannot be verified as accurate (confidence 24) [E3BD5E2B], AccurateRip returned [BF61CF22] (AR v2)

No tracks could be verified as accurate
You may have a different pressing from the one(s) in the database

End of status report
[свернуть]

Файл CUE

REM GENRE Morna
REM DATE 2010
REM DISCID 2F123213
REM COMMENT "ExactAudioCopy v1.0b3"
PERFORMER "Cesaria Evora"
TITLE "Cesaria Evora & ..."
FILE "Cesaria Evora - Cesaria Evora & ....flac" WAVE
TRACK 01 AUDIO
TITLE "Sodade [En Duo Avec Bonga]"
PERFORMER "Cesaria Evora & Bonga"
INDEX 01 00:00:00
TRACK 02 AUDIO
TITLE "Moda Bo [En Duo Avec Lura]"
PERFORMER "Cesaria Evora & Lura"
INDEX 01 04:54:00
TRACK 03 AUDIO
TITLE "E Doce Morrer No Mar [En Duo Avec Marisa Monte]"
PERFORMER "Cesaria Evora & Marisa Monte"
INDEX 01 09:50:71
TRACK 04 AUDIO
TITLE "Elle Chante [En Duo Avec Bernard Lavilliers]"
PERFORMER "Cesaria Evora & Bernard Lavilliers"
INDEX 00 13:28:45
INDEX 01 13:29:45
TRACK 05 AUDIO
TITLE "Africa Nossa [En Duo Avec Ismael Lo]"
PERFORMER "Cesaria Evora & Ismael Lo"
INDEX 01 17:22:05
TRACK 06 AUDIO
TITLE "Yamore [En Duo Avec Salif Keita - Radio Edit]"
PERFORMER "Cesaria Evora & Salif Keita"
INDEX 01 21:14:12
TRACK 07 AUDIO
TITLE "Lagrimas Negras [En Duo Avec Compay Segundo]"
PERFORMER "Cesaria Evora & Compay Segundo"
INDEX 01 24:57:57
TRACK 08 AUDIO
TITLE "Quel Casinha (Il Ragazzo Della Via Gluck) [En Duo Avec Adriano Celentano]"
PERFORMER "Cesaria Evora & Adriano Celentano"
INDEX 01 29:55:64
TRACK 09 AUDIO
TITLE "Negue [En Duo Avec Chucho Waldes]"
PERFORMER "Cesaria Evora & Chucho Waldes"
INDEX 01 34:22:31
TRACK 10 AUDIO
TITLE "Regresso [En Duo Avec Caetano Veloso]"
PERFORMER "Cesaria Evora & Caetano Veloso"
INDEX 00 38:07:41
INDEX 01 38:07:71
TRACK 11 AUDIO
TITLE "Embarcacao [En Duo Avec Kayah - Radio Edit]"
PERFORMER "Cesaria Evora & Avec Kayah"
INDEX 00 42:04:65
INDEX 01 42:06:00
TRACK 12 AUDIO
TITLE "Um Pincelada [En Duo Avec Cali]"
PERFORMER "Cesaria Evora & Cali"
INDEX 01 45:31:12
TRACK 13 AUDIO
TITLE "Historia De Un Amor [En Duo Avec Tania Libertad]"
PERFORMER "Cesaria Evora & Tania Libertad"
INDEX 01 48:56:60
TRACK 14 AUDIO
TITLE "Tiempo Y Silencio [En Duo Avec Pedro Guerra]"
PERFORMER "Cesaria Evora & Pedro Guerra"
INDEX 00 52:53:05
INDEX 01 52:53:35
TRACK 15 AUDIO
TITLE "Crepuscular Solidao [En Duo Avec Bonnie Raitt]"
PERFORMER "Cesaria Evora & Bonnie Raitt"
INDEX 00 56:10:71
INDEX 01 56:11:71
TRACK 16 AUDIO
TITLE "Ausencia [En Duo Avec Goran Bregovic]"
PERFORMER "Cesaria Evora & Goran Bregovic"
INDEX 00 61:41:40
INDEX 01 61:42:60
TRACK 17 AUDIO
TITLE "Mae Pa Fidje [En Duo Avec Teofilo Chantre]"
PERFORMER "Cesaria Evora & Teofilo Chantre"
INDEX 01 65:30:18
TRACK 18 AUDIO
TITLE "Sodade [En Duo Avec Eleftheria Arvanitaki - Live]"
PERFORMER "Cesaria Evora & Eleftheria Arvanitaki"
INDEX 00 69:30:67
INDEX 01 69:32:22
TRACK 19 AUDIO
TITLE "Negue [En Duo Avec Caetano Veloso - Live]"
PERFORMER "Cesaria Evora & Caetano Veloso"
INDEX 01 75:26:69
[свернуть]

Лог проверки качества

AUDIOCHECKER v2.0 beta (build 457) - by Dester - [Ссылки могут видеть только зарегистрированные и активированные пользователи.]
[Only registered and activated users can see links.]
~~~~~~~~~~~~~~~~~~~~~~~~~~~~~~~~~~
-=== НЕ РЕДАКТИРУЙТЕ ЭТОТ ФАЙЛ! ===-

Путь: ...\2010 - Cesaria Evora & [88697813982]

1 -=- Cesaria Evora - Cesaria Evora & ....flac -=- CDDA (100%)

156625188
[свернуть]

Спектр частот

[свернуть]

Скачать Cesaria Evora - Cesaria Evora & ...

[Ссылки могут видеть только зарегистрированные и активированные пользователи.]
[Only registered and activated users can see links.]

password: sergych
[свернуть]
My opinion of release: 10/10
__________________
TAIFUN.Wings of Soul

Вверх
Похожие темы
Тема Автор Раздел Ответов Последнее сообщение
Альбом Cesaria Evora - Nha Sentimento sergych Folk (народная) 0 06.02.2015 17:51
Сборник Cesaria Evora - Anthologie sergych Folk (народная) 0 23.01.2015 21:35
Альбом Cesaria Evora - Cabo Verde sergych Folk (народная) 0 21.01.2015 20:03
Релиз Cesaria Evora - Grand Collection fly123 Jazz и Blues 0 18.12.2011 16:48


Метки
2010 , cesaria evora , cesaria evora & ... , coladeira , morna

Опции темы

Ваши права в разделе
Вы не можете создавать новые темы
Вы не можете отвечать в темах
Вы не можете прикреплять вложения
Вы не можете редактировать свои сообщения

Быстрый переход



Текущее время: 01:31. Часовой пояс GMT +3.
Powered by vBulletin® Version 3.8.10
Copyright ©2000 - 2019, vBulletin Solutions, Inc. Перевод: zCarot
© 2008 - 2019 Taifun With Song
Яндекс.Метрика