TAIFUN With Song
Навигация
Вернуться   TAIFUN With Song > Music (обменник) > POP > Зарубежная Поп-Музыка
Расширенный поиск
А знаете ли Вы, что...
Кто написал сонату, в которой имитируется половой акт?
«Чешский авангардный композитор Эрвин Шульгоф в 1919 году написал Эротическую сонату, которая по сей день исполняется на музыкальных фестивалях. Фактически соната состоит из одной партии для женского голоса, имитирующего стоны и вздохи при половом акте.»
 
Опции темы

  #1
Старый 07.05.2014, 22:20
sergych
Координатор
Досье
 
Аватар для sergych
Релиз Sheryl Crow - Can't Cry Anymore


1995 - Sheryl Crow - Can't Cry Anymore {EP}




Исполнитель/Artist: Sheryl Crow
Альбом/Album: Can't Cry Anymore {EP}
Год/Year: 1995
Жанр/Genre: Rock, pop rock, adult contemporary
Страна/Country: Соединённые Штаты
Рекорд-лейбл/Record label: A&M Records
Номер в каталоге/Catalogue #: 581 081-2
Формат/Format: Free Lossless Audio Codec (*.flac)
Качество/Quality: Lossless
Тип рипа/RIP Type: image+.cue
Продолжительность/Length: 00:25:20
Источник/Source: Собственный рип
Размер/Size: 165.5 MB

Сканы в комплекте

Треклист

01. Can't Cry Anymore (LP version) [0:03:40.00]
02. No One Said It Would Be Easy (live) [0:06:52.17]
03. What I Can Do for You (live) [0:07:16.70]
04. I Shall Believe (live) [0:07:31.00]
[свернуть]

youtube.com

[свернуть]

EAC лог

Exact Audio Copy V1.0 beta 3 from 29. August 2011

EAC extraction logfile from 7. May 2014, 14:00

Sheryl Crow / Can't Cry Anymore

Used drive : Optiarc DVD RW AD-5170A Adapter: 0 ID: 0

Read mode : Secure
Utilize accurate stream : Yes
Defeat audio cache : Yes
Make use of C2 pointers : No

Read offset correction : 48
Overread into Lead-In and Lead-Out : No
Fill up missing offset samples with silence : Yes
Delete leading and trailing silent blocks : No
Null samples used in CRC calculations : Yes
Used interface : Installed external ASPI interface

Used output format : User Defined Encoder
Selected bitrate : 1024 kBit/s
Quality : High
Add ID3 tag : No
Command line compressor : C:\MMProgram\Exact Audio Copy\FLAC\FLAC.EXE
Additional command line options : -6 -V -T "ARTIST=%artist%" -T "TITLE=%title%" -T "ALBUM=%albumtitle%" -T "DATE=%year%" -T "TRACKNUMBER=%tracknr%" -T "GENRE=%genre%" -T "COMMENT=%comment%" -T "BAND=%albuminterpret%" -T "ALBUMARTIST=%albuminterpret%" -T "COMPOSER=%composer%" %haslyrics%--tag-from-file=LYRICS="%lyricsfile%"%haslyrics% -T "DISCNUMBER=%cdnumber%" -T "TOTALDISCS=%totalcds%" -T "TOTALTRACKS=%numtracks%" %hascover%--picture="%coverfile%"%hascover% %source% -o %dest%


TOC of the extracted CD

Track | Start | Length | Start sector | End sector
---------------------------------------------------------
1 | 0:00.00 | 3:40.00 | 0 | 16499
2 | 3:40.00 | 6:52.17 | 16500 | 47416
3 | 10:32.17 | 7:16.70 | 47417 | 80186
4 | 17:49.12 | 7:31.00 | 80187 | 114011


Range status and errors

Selected range

Filename D:\mm\Sheryl Crow\1995 - Can't Cry Anymore {EP} [581 081-2]\Sheryl Crow - Can't Cry Anymore.wav

Peak level 95.3 %
Extraction speed 1.7 X
Range quality 100.0 %
Test CRC 9A8C7EFE
Copy CRC 9A8C7EFE
Copy OK

No errors occurred


AccurateRip summary

Track 1 cannot be verified as accurate (confidence 4) [D15AD97C], AccurateRip returned [31DAA1A1] (AR v2)
Track 2 cannot be verified as accurate (confidence 4) [9F6EA476], AccurateRip returned [9DAB5BB0] (AR v2)
Track 3 cannot be verified as accurate (confidence 4) [436A8A0B], AccurateRip returned [DAFF2410] (AR v2)
Track 4 cannot be verified as accurate (confidence 4) [CD014DEC], AccurateRip returned [DC1293CA] (AR v2)

No tracks could be verified as accurate
You may have a different pressing from the one(s) in the database

End of status report

==== Log checksum C20F382A65A763EB742C1905E97271ED18713653B4F6F57902947E4582C1E4A9 ====
[свернуть]

Файл CUE

REM DATE 1995
REM DISCID 1E05F004
REM COMMENT "ExactAudioCopy v1.0b3"
PERFORMER "Sheryl Crow"
TITLE "Can't Cry Anymore"
FILE "Sheryl Crow - Can't Cry Anymore.flac" WAVE
TRACK 01 AUDIO
TITLE "Can't Cry Anymore (LP version)"
PERFORMER "Sheryl Crow"
INDEX 01 00:00:00
TRACK 02 AUDIO
TITLE "No One Said It Would Be Easy (live)"
PERFORMER "Sheryl Crow"
INDEX 01 03:40:00
TRACK 03 AUDIO
TITLE "What I Can Do for You (live)"
PERFORMER "Sheryl Crow"
INDEX 01 10:32:17
TRACK 04 AUDIO
TITLE "I Shall Believe (live)"
PERFORMER "Sheryl Crow"
INDEX 01 17:49:12
[свернуть]

Лог проверки качества

AUDIOCHECKER v2.0 beta (build 457) - by Dester - [Ссылки могут видеть только зарегистрированные и активированные пользователи.]
[Only registered and activated users can see links.]
~~~~~~~~~~~~~~~~~~~~~~~~~~~~~~~~~~
-=== НЕ РЕДАКТИРУЙТЕ ЭТОТ ФАЙЛ! ===-

Путь: ...\1995 - Can't Cry Anymore {EP} [581 081-2]

1 -=- Sheryl Crow - Can't Cry Anymore.flac -=- CDDA (100%)

18595476
[свернуть]

Спектр частот

[свернуть]

Скачать Sheryl Crow - Can't Cry Anymore

[Ссылки могут видеть только зарегистрированные и активированные пользователи.]
[Only registered and activated users can see links.]

password: sergych
[свернуть]
My opinion of release: 9/10
__________________
TAIFUN.Wings of Soul


Последний раз редактировалось sergych, 07.02.2019 в 17:03. Причина: заменил ссылку из-за личеров
Вверх
Пользователь сказал cпасибо:
Lighting1981 (08.06.2017)
Похожие темы
Тема Автор Раздел Ответов Последнее сообщение
Релиз Sheryl Crow - 100 Miles From Memphis sergych Зарубежная Поп-Музыка 1 22.02.2016 09:30
Сингл Sheryl Crow - All I Wanna Do sergych Зарубежная Поп-Музыка 0 11.01.2014 10:48
Альбом Sheryl Crow - Detours sergych Зарубежная Поп-Музыка 0 03.09.2013 20:54
Релиз Rob Crow - He Thinks He's People PUPOKIN Alternative Rock 0 21.10.2011 10:41


Метки
1995 , adult contemporary , can't cry anymore {ep} , pop rock , rock , sheryl crow

Опции темы

Ваши права в разделе
Вы не можете создавать новые темы
Вы не можете отвечать в темах
Вы не можете прикреплять вложения
Вы не можете редактировать свои сообщения

Быстрый переход



Текущее время: 00:43. Часовой пояс GMT +3.
Powered by vBulletin® Version 3.8.10
Copyright ©2000 - 2019, vBulletin Solutions, Inc. Перевод: zCarot
© 2008 - 2019 Taifun With Song
Яндекс.Метрика