TAIFUN With Song
Навигация
А знаете ли Вы, что...
Какой музыкант однажды спел о том, что забыл слова этой песни?
«Однажды на концерте во Франции солист исландской группы Sigur Rós Йонси забыл текст песни. Не остановившись, он сымпровизировал под ту же музыку: «Чёрт, я забыл слова. Но это ничего. Потому что я во Франции, где никто не поймёт».»
 
Опции темы

  #1
Старый 11.01.2014, 10:48
sergych
Координатор
Досье
 
Аватар для sergych
Релиз Sheryl Crow - All I Wanna Do


1994 - Sheryl Crow - All I Wanna Do




Исполнитель/Artist: Sheryl Crow
Альбом/Album: All I Wanna Do {Single}
Год/Year: 1994
Жанр/Genre: Pop, adult contemporary, Alternative
Страна/Country: Германия
Рекорд-лейбл/Record label: A&M Records
Номер в каталоге/Catalogue #: 580 655-2
Формат/Format: Free Lossless Audio Codec (*.flac)
Качество/Quality: Lossless
Тип рипа/RIP Type: image+.cue
Продолжительность/Length: 00:17:24
Источник/Source: Собственный рип
Размер/Size: 128 MB

Сканы в комплекте

Треклист

01. All I Wanna Do [0:04:34.03]
02. I Shall Believe (live, The 328 Club in Nashville, 1994-04-15) [0:05:53.12]
03. What I Can Do for You (live, The Borderline, London, 1994-02-09) [0:06:57.00]
[свернуть]

youtube.com

[свернуть]

EAC лог

Exact Audio Copy V1.0 beta 3 from 29. August 2011

EAC extraction logfile from 11. January 2014, 13:26

Sheryl Crow / All I Wanna Do

Used drive : ATAPI iHAS124 D Adapter: 0 ID: 2

Read mode : Secure
Utilize accurate stream : Yes
Defeat audio cache : Yes
Make use of C2 pointers : Yes

Read offset correction : 6
Overread into Lead-In and Lead-Out : No
Fill up missing offset samples with silence : Yes
Delete leading and trailing silent blocks : No
Null samples used in CRC calculations : Yes
Used interface : Installed external ASPI interface

Used output format : User Defined Encoder
Selected bitrate : 1024 kBit/s
Quality : High
Add ID3 tag : No
Command line compressor : C:\Program Files (x86)\Exact Audio Copy\Flac\flac.exe
Additional command line options : -6 -V -T "ARTIST=%artist%" -T "TITLE=%title%" -T "ALBUM=%albumtitle%" -T "DATE=%year%" -T "TRACKNUMBER=%tracknr%" -T "GENRE=%genre%" -T "COMMENT=%comment%" -T "BAND=%albuminterpret%" -T "COMPOSER=%composer%" %haslyrics%--tag-from-file=LYRICS="%lyricsfile%"%haslyrics% -T "DISCNUMBER=%cdnumber%" -T "TOTALDISCS=%totalcds%" -T "TOTALTRACKS=%numtracks%" %hascover%--picture="%coverfile%"%hascover% %source% -o %dest%


TOC of the extracted CD

Track | Start | Length | Start sector | End sector
---------------------------------------------------------
1 | 0:00.32 | 4:34.03 | 32 | 20584
2 | 4:34.35 | 5:53.12 | 20585 | 47071
3 | 10:27.47 | 6:57.00 | 47072 | 78346


Range status and errors

Selected range

Filename C:\mm\Sheryl Crow\1994 - All I Wanna Do {Single} [580 655-2]\Sheryl Crow - All I Wanna Do.wav

Peak level 100.0 %
Extraction speed 9.4 X
Range quality 99.9 %
Test CRC ED624199
Copy CRC ED624199
Copy OK

No errors occurred


AccurateRip summary

Track 1 accurately ripped (confidence 23) [47F79485] (AR v2)
Track 2 accurately ripped (confidence 22) [CF1B9867] (AR v2)
Track 3 accurately ripped (confidence 22) [F7FDB68E] (AR v2)

All tracks accurately ripped

End of status report
[свернуть]

Файл CUE

REM DATE 1994
REM DISCID 22041403
REM COMMENT "ExactAudioCopy v1.0b3"
PERFORMER "Sheryl Crow"
TITLE "All I Wanna Do"
FILE "Sheryl Crow - All I Wanna Do.flac" WAVE
TRACK 01 AUDIO
TITLE "All I Wanna Do"
PERFORMER "Sheryl Crow"
INDEX 00 00:00:00
INDEX 01 00:00:32
TRACK 02 AUDIO
TITLE "I Shall Believe (live, The 328 Club in Nashville, 1994-04-15)"
PERFORMER "Sheryl Crow"
INDEX 00 04:33:37
INDEX 01 04:34:35
TRACK 03 AUDIO
TITLE "What I Can Do for You (live, The Borderline, London, 1994-02-09)"
PERFORMER "Sheryl Crow"
INDEX 01 10:27:47
[свернуть]

Лог проверки качества

AUDIOCHECKER v2.0 beta (build 457) - by Dester - [Ссылки могут видеть только зарегистрированные и активированные пользователи.]
[Only registered and activated users can see links.]
~~~~~~~~~~~~~~~~~~~~~~~~~~~~~~~~~~
-=== НЕ РЕДАКТИРУЙТЕ ЭТОТ ФАЙЛ! ===-

Путь: ...\1994 - All I Wanna Do {Single} [580 655-2]

1 -=- Sheryl Crow - All I Wanna Do.flac -=- CDDA (100%)

24685172
[свернуть]

Спектр частот

[свернуть]

Скачать Sheryl Crow - All I Wanna Do

[Ссылки могут видеть только зарегистрированные и активированные пользователи.]
[Only registered and activated users can see links.]

password: sergych
[свернуть]
My opinion of release: 10/10
__________________
TAIFUN.Wings of Soul


Последний раз редактировалось sergych, 28.11.2017 в 06:58. Причина: заменил ссылку
Вверх
2 пользователя(ей) сказали cпасибо:
alexandro (19.10.2015), Lighting1981 (08.06.2017)
Похожие темы
Тема Автор Раздел Ответов Последнее сообщение
Релиз Sheryl Crow - 100 Miles From Memphis sergych Зарубежная Поп-Музыка 1 22.02.2016 09:30
Альбом Sheryl Crow - Detours sergych Зарубежная Поп-Музыка 0 03.09.2013 20:54
VA Kitties Wanna Dance 2 PUPOKIN Deep House 0 21.04.2011 09:47
Альбом Samantha Fox - I Wanna Have Some Fun PUPOKIN Disco 0 30.11.2008 20:20


Метки
1994 , adult contemporary , all i wanna do {single} , alternative , pop , sheryl crow

Опции темы

Ваши права в разделе
Вы не можете создавать новые темы
Вы не можете отвечать в темах
Вы не можете прикреплять вложения
Вы не можете редактировать свои сообщения

Быстрый переход



Текущее время: 01:27. Часовой пояс GMT +3.
Powered by vBulletin® Version 3.8.10
Copyright ©2000 - 2019, vBulletin Solutions, Inc. Перевод: zCarot
© 2008 - 2019 Taifun With Song
Яндекс.Метрика