TAIFUN With Song - качественная и редкая музыка
Навигация
Classical В этом разделе релизы на классическую музыку.

А знаете ли Вы, что...
Горький и Шаляпин пробовались в хор!
«Шаляпин и Горький практически в одно и то же время пробовались в хор. Горького взяли, Шаляпина нет.»
 
Опции темы

  #1
Старый 18.02.2019, 00:57
TAIFUN
Admin
Досье
 
Аватар для TAIFUN
По умолчанию Franz Liszt - Концерты для фортепиано № 1 и 2


2002 - Franz Liszt - Концерты для фортепиано № 1 и 2




Исполнитель/Artist: Franz Liszt
Альбом/Album: Концерты для фортепиано № 1 и 2
Год/Year: 2002
Жанр/Genre: Classical
Страна/Country: Украина
Рекорд-лейбл/Record label: Одиссей
Формат/Format: Free Lossless Audio Codec (*.flac)
Качество/Quality: Lossless
Тип рипа/RIP Type: image+.cue
Продолжительность/Length: 01:01:16
Источник/Source: Собственный рип
Размер/Size: 274 MB

Сканы в комплекте

Треклист

01. Концерт для фортепиано №1, Ми-бемоль мажор
02. Концерт для фортепиано №1, ми-бемоль мажор, Квази адажио - Алегретто виваче -...
03. Концерт для фортепиано №1, Ми-бемоль мажор, Аллегро марциале анимато - Престо
04. Концерт для фортепиано №2, Ля мажор Адажио состенуто ассаи Аллегро ажитато ассаи
05. Концерт для фортепиано №2, Ля мажор, Аллегро модерато Аллегро дечизо
06. Концерт для фортепиано №2, Ля мажор, Марциале ун поко мено аллегро
07. Концерт для фортепиано №2, Ля мажор, Аллегро анимато Стретто
08. Святой Франциск из Паолы, идущий по волнам (Легенда №2)
09. Венгерская рапсодия №2, До-диез минор
10. Венгерская рапсодия №8, Фа-диез минор (каприччо)
[свернуть]

Исполнители/Performers

1-7 фортепиано Томаш Васари
8-10 фортепиано Жоржес Циффра
[свернуть]

EAC лог

Exact Audio Copy V1.3 from 2. September 2016

EAC extraction logfile from 30. January 2019, 18:22

Franz Liszt / Концерты для фортепиано №1 (ми-бемоль мажор) и 2 (ля мажор)

Used drive : ASUS DRW-24D5MT Adapter: 1 ID: 0

Read mode : Secure
Utilize accurate stream : Yes
Defeat audio cache : Yes
Make use of C2 pointers : No

Read offset correction : 6
Overread into Lead-In and Lead-Out : No
Fill up missing offset samples with silence : Yes
Delete leading and trailing silent blocks : No
Null samples used in CRC calculations : Yes
Used interface : Native Win32 interface for Win NT & 2000

Used output format : Internal WAV Routines
Sample format : 44.100 Hz; 16 Bit; Stereo


TOC of the extracted CD

Track | Start | Length | Start sector | End sector
---------------------------------------------------------
1 | 0:00.00 | 5:15.00 | 0 | 23624
2 | 5:15.00 | 8:20.12 | 23625 | 61136
3 | 13:35.12 | 4:17.63 | 61137 | 80474
4 | 17:53.00 | 6:51.05 | 80475 | 111304
5 | 24:44.05 | 7:35.37 | 111305 | 145466
6 | 32:19.42 | 3:28.20 | 145467 | 161086
7 | 35:47.62 | 1:52.13 | 161087 | 169499
8 | 37:40.00 | 8:50.00 | 169500 | 209249
9 | 46:30.00 | 9:04.55 | 209250 | 250104
10 | 55:34.55 | 5:40.65 | 250105 | 275669


Range status and errors

Selected range

Filename D:\Музыка\CLASSICAL\Ференц Лист\Концерты для фортепиано № 1 и 2\Franz Liszt - Концерты для фортепиано №1 (ми-бемоль мажор) и 2 (ля мажор).wav

Peak level 86.9 %
Extraction speed 6.3 X
Range quality 99.9 %
Copy CRC 072D03A8
Copy OK

No errors occurred


AccurateRip summary

Track 1 cannot be verified as accurate (confidence 1) [98B30A31], AccurateRip returned [F236B807] (AR v2)
Track 2 cannot be verified as accurate (confidence 1) [80D92E93], AccurateRip returned [025740B0] (AR v2)
Track 3 cannot be verified as accurate (confidence 1) [12899035], AccurateRip returned [CD72B7E1] (AR v2)
Track 4 cannot be verified as accurate (confidence 1) [9BE1B6A0], AccurateRip returned [112FB844] (AR v2)
Track 5 cannot be verified as accurate (confidence 1) [E8EB6B3A], AccurateRip returned [AE225BD1] (AR v2)
Track 6 cannot be verified as accurate (confidence 1) [84644EB0], AccurateRip returned [ACAD9723] (AR v2)
Track 7 cannot be verified as accurate (confidence 1) [F87158B9], AccurateRip returned [0A6230C3] (AR v2)
Track 8 not present in database
Track 9 not present in database
Track 10 not present in database

7 трек(и) не удалось проверить на точность
3 трек(и) не содержатся в базе AccurateRip

No tracks could be verified as accurate
You may have a different pressing from the one(s) in the database

End of status report

---- CUETools DB Plugin V2.1.6

[CTDB TOCID: 5DmOLiSvn09q.3Hn7sCv9irLblg-] disk not present in database
Submit result: 5DmOLiSvn09q.3Hn7sCv9irLblg- has been uploaded


==== Log checksum E647339CD53C3DEA4F00C9A6366CA47AF8ED6D6CE013B10DA434B34F7ECCCB57 ====
[свернуть]

Файл CUE

REM GENRE Classical
REM DATE 2002
REM DISCID 8B0E5B0A
REM COMMENT "ExactAudioCopy v1.3"
PERFORMER "Franz Liszt"
TITLE "Концерты для фортепиано №1 (ми-бемоль мажор) и 2 (ля мажор)"
REM COMPOSER "Franz Liszt"
FILE "Franz Liszt - Концерты для фортепиано №1 (ми-бемоль мажор) и 2 (ля мажор).flac" WAVE
TRACK 01 AUDIO
TITLE "Концерт для фортепиано №1, Ми-бемоль мажор"
PERFORMER "Franz Liszt"
REM COMPOSER "Franz Liszt"
INDEX 01 00:00:00
TRACK 02 AUDIO
TITLE "Концерт для фортепиано №1, ми-бемоль мажор, Квази адажио - Алегретто виваче -..."
PERFORMER "Franz Liszt"
REM COMPOSER "Franz Liszt"
INDEX 01 05:15:00
TRACK 03 AUDIO
TITLE "Концерт для фортепиано №1, Ми-бемоль мажор, Аллегро марциале анимато - Престо"
PERFORMER "Franz Liszt"
REM COMPOSER "Franz Liszt"
INDEX 01 13:35:12
TRACK 04 AUDIO
TITLE "Концерт для фортепиано №2, Ля мажор Адажио состенуто ассаи Аллегро ажитато ассаи"
PERFORMER "Franz Liszt"
REM COMPOSER "Franz Liszt"
INDEX 01 17:53:00
TRACK 05 AUDIO
TITLE "Концерт для фортепиано №2, Ля мажор, Аллегро модерато Аллегро дечизо"
PERFORMER "Franz Liszt"
REM COMPOSER "Franz Liszt"
INDEX 01 24:44:05
TRACK 06 AUDIO
TITLE "Концерт для фортепиано №2, Ля мажор, Марциале ун поко мено аллегро"
PERFORMER "Franz Liszt"
REM COMPOSER "Franz Liszt"
INDEX 01 32:19:42
TRACK 07 AUDIO
TITLE "Концерт для фортепиано №2, Ля мажор, Аллегро анимато Стретто"
PERFORMER "Franz Liszt"
REM COMPOSER "Franz Liszt"
INDEX 01 35:47:62
TRACK 08 AUDIO
TITLE "Святой Франциск из Паолы, идущий по волнам (Легенда №2)"
PERFORMER "Franz Liszt"
REM COMPOSER "Franz Liszt"
INDEX 01 37:40:00
TRACK 09 AUDIO
TITLE "Венгерская рапсодия №2, До-диез минор"
PERFORMER "Franz Liszt"
REM COMPOSER "Franz Liszt"
INDEX 01 46:30:00
TRACK 10 AUDIO
TITLE "Венгерская рапсодия №8, Фа-диез минор (каприччо)"
PERFORMER "Franz Liszt"
REM COMPOSER "Franz Liszt"
INDEX 01 55:34:55
[свернуть]

Лог проверки качества

AUDIOCHECKER v2.0 beta (build 457) - by Dester - [Ссылки могут видеть только зарегистрированные и активированные пользователи.]
[Only registered and activated users can see links.]
~~~~~~~~~~~~~~~~~~~~~~~~~~~~~~~~~~
-=== НЕ РЕДАКТИРУЙТЕ ЭТОТ ФАЙЛ! ===-

Путь: ...\2002 - Концерты для фортепиано № 1 и 2

1 -=- Franz Liszt - Концерты для фортепиано №1 (ми-бемоль мажор) и 2 (ля мажор).flac -=- CDDA (100%)

96187796
[свернуть]

Спектр частот

[свернуть]

Скачать Franz Liszt - Концерты для фортепиано № 1 и 2

[Ссылки могут видеть только зарегистрированные и активированные пользователи.]
[Only registered and activated users can see links.]
[свернуть]

Контрольная сумма (хеш-сумма) архива

MD5: 2134873752801c58137143b5c7d0bd65
[свернуть]
My opinion of release: 9/10

Release info RInfo

Очень яркая и многогранная романтическая личность 2-ой половины 19-го века. Гениальный пианист и композитор. Новатор.
Музыкальный критик, который написал много статей о музыке ("Письма странствующего бакалавра", "Исследование музыки венгерских цыган"). Лист - педагог огромного масштаба. За жизнь у него было около 300 учеников из разных стран. Будучи бескорыстным по натуре, он посвятил большую часть своей жизни пропаганде других композиторов.
Всего у Листа около 1200 произведений. Примерно половина из них - транскрипции и парафразы на темы других композиторов.
Он поддерживал композиторов разных национальных школ: Шопена, Сметану, Грига, Шумана, Вагнера, Берлиоза, Бородина, Римского-Корсакова. Лист очень любил кучкистов.
Родился Лист в Венгрии. По национальности - венгр. Многие его произведения связаны с Венгрией. Элементы народных танцев и песен вошли в его произведения, обогащённые общеевропейскими достижениями, но есть и элементы венгерского фольклора.
Произведения, связанные с Венгрией: кантата "Венгрия", симфоническая поэма "Венгрия", героический марш в венгерском стиле, несколько тетрадей национальных венгерских и рапсодий, а также ещё 19 венгерских рапсодий, "Венгерская коронационная месса".
Лист был страстным пропагандистом идеи программности в музыке. Он воплотил в музыке образы произведений Данте, Петрарки, Гёте. Он передавал в музыке и содержание живописи Рафаэля ("Обручение)", скульптуры Микеланджело ("Мыслитель").
Лист - композитор-новатор. В связи с программностью он переосмыслил классические жанры и формы и создал свой новый жанр - симфоническая поэма. Симфоническая поэма - одночастное симфоническое произведение, которое сочетает в себе черты цикличности и других форм, например сонатной. У Листа 13 симфонических поэм. Метод развития материала в них монотематический (из одной темы вырастают другие). Музыка Листа отличается особой патетикой, приподнятостью, ораторским пафосом, т.к. он всегда пытался воздействовать на большую массу людей. Большинство его произведений - произведения для фортепиано.

Вверх
Пользователь сказал cпасибо:
sergych (18.02.2019)
Похожие темы
Тема Автор Раздел Ответов Последнее сообщение
Арфовые концерты LUСIAN Classical 0 13.05.2009 18:26
Ищу DVD-видео концерты Chris De Burgh minak Поиск зарубежной музыки 0 02.08.2008 18:00
Franz Ferdinand отложили релиз альбома МУЗЫКА Новости в мире музыки 0 17.06.2008 00:00
Альбом Franz Schubert - The Greatest Classical Hits LUСIAN Classical 0 13.05.2008 21:54
Концерты Весны в Москве МУЗЫКА Афиша 0 06.05.2008 15:27


Метки
2002 , classical , franz liszt , концерты для фортепиано № 1 и 2 , лист , ференц лист

Опции темы

Ваши права в разделе
Вы не можете создавать новые темы
Вы не можете отвечать в темах
Вы не можете прикреплять вложения
Вы не можете редактировать свои сообщения

Быстрый переход



Текущее время: 09:18. Часовой пояс GMT +3.
Powered by vBulletin® Version 3.8.10
Copyright ©2000 - 2019, vBulletin Solutions, Inc. Перевод: zCarot
© 2008 - 2019 Taifun With Song
Яндекс.Метрика