TAIFUN With Song - качественная и редкая музыка
Навигация
Вернуться   TAIFUN With Song - качественная и редкая музыка > Music (обменник) > Другие направления музыки > Classical
Расширенный поиск
Classical В этом разделе релизы на классическую музыку.

А знаете ли Вы, что...
Какая песня, часто приписываемая Элвису Пресли, никогда им не записывалась?
«Песню «Only You» часто приписывают Элвису Пресли, хотя на самом деле наиболее известными её исполнителями является группа «The Platters». Элвис пел «Only You» на некоторых концертах, но не существует ни одной аудио- или видеозаписи этой композиции в его исполнении.»
 
Опции темы

  #1
Старый 18.02.2019, 00:56
TAIFUN
Admin
Досье
 
Аватар для TAIFUN
По умолчанию Fryderyk Franciszek Chopin - Юность гения - классическая музыка детям


2006 - Fryderyk Franciszek Chopin - Юность гения - классическая музыка детям




Исполнитель/Artist: Fryderyk Franciszek Chopin
Альбом/Album: Юность гения - классическая музыка детям
Год/Year: 2006
Жанр/Genre: Classical
Страна/Country: Украина
Рекорд-лейбл/Record label: Агенство Звук
Формат/Format: Free Lossless Audio Codec (*.flac)
Качество/Quality: Lossless
Тип рипа/RIP Type: image+.cue
Продолжительность/Length: 00:52:24
Источник/Source: Собственный рип
Размер/Size: 238 MB

Сканы в комплекте

Треклист

01. Юность гения. Фредерик Шопен
02. Баркарола
03. Мазурка
04. Баллада №4
[свернуть]

Исполнители/Performers

Автор инсценировки О. Гарбуз
[свернуть]

EAC лог

Exact Audio Copy V1.3 from 2. September 2016

EAC extraction logfile from 30. January 2019, 22:35

Фредерик Шопен / Юность гения - Фредерик Шопен

Used drive : ASUS DRW-24D5MT Adapter: 1 ID: 0

Read mode : Secure
Utilize accurate stream : Yes
Defeat audio cache : Yes
Make use of C2 pointers : No

Read offset correction : 6
Overread into Lead-In and Lead-Out : No
Fill up missing offset samples with silence : Yes
Delete leading and trailing silent blocks : No
Null samples used in CRC calculations : Yes
Used interface : Native Win32 interface for Win NT & 2000

Used output format : Internal WAV Routines
Sample format : 44.100 Hz; 16 Bit; Stereo


TOC of the extracted CD

Track | Start | Length | Start sector | End sector
---------------------------------------------------------
1 | 0:00.00 | 27:49.46 | 0 | 125220
2 | 27:49.46 | 8:31.61 | 125221 | 163606
3 | 36:21.32 | 4:29.58 | 163607 | 183839
4 | 40:51.15 | 11:33.48 | 183840 | 235862


Range status and errors

Selected range

Filename D:\Музыка\CLASSICAL\Фредерик Франсуа Шопен\Юность гения - классическая музыка детям\Фредерик Шопен - Юность гения - Фредерик Шопен.wav

Peak level 98.2 %
Extraction speed 2.9 X
Range quality 100.0 %
Copy CRC BAAFF3BB
Copy OK

No errors occurred


AccurateRip summary

Track 1 not present in database
Track 2 not present in database
Track 3 not present in database
Track 4 not present in database

None of the tracks are present in the AccurateRip database

End of status report

---- CUETools DB Plugin V2.1.6

[CTDB TOCID: 6fq2Ujrp_yzYGrLrc98ovt3e1b0-] disk not present in database
Submit result: 6fq2Ujrp_yzYGrLrc98ovt3e1b0- has been uploaded


==== Log checksum 93257BBDCD435DD1C7C03A776EA4FEF39BC66896F8A7409C5FE0565196B83528 ====
[свернуть]

Файл CUE

REM GENRE Classical
REM DATE 2006
REM DISCID 2D0C4804
REM COMMENT "ExactAudioCopy v1.3"
PERFORMER "Фредерик Шопен"
TITLE "Юность гения - Фредерик Шопен"
REM COMPOSER ""
FILE "Фредерик Шопен - Юность гения - Фредерик Шопен.flac" WAVE
TRACK 01 AUDIO
TITLE "Юность гения. Фредерик Шопен"
PERFORMER "Фредерик Шопен"
REM COMPOSER ""
FLAGS DCP
INDEX 01 00:00:00
TRACK 02 AUDIO
TITLE "Баркарола"
PERFORMER "Фредерик Шопен"
REM COMPOSER ""
FLAGS DCP
INDEX 01 27:49:46
TRACK 03 AUDIO
TITLE "Мазурка"
PERFORMER "Фредерик Шопен"
REM COMPOSER ""
FLAGS DCP
INDEX 01 36:21:32
TRACK 04 AUDIO
TITLE "Баллада №4"
PERFORMER "Фредерик Шопен"
REM COMPOSER ""
FLAGS DCP
INDEX 01 40:51:15
[свернуть]

Лог проверки качества

AUDIOCHECKER v2.0 beta (build 457) - by Dester - [Ссылки могут видеть только зарегистрированные и активированные пользователи.]
[Only registered and activated users can see links.]
~~~~~~~~~~~~~~~~~~~~~~~~~~~~~~~~~~
-=== НЕ РЕДАКТИРУЙТЕ ЭТОТ ФАЙЛ! ===-

Путь: ...\Юность гения - классическая музыка детям

1 -=- Фредерик Шопен - Юность гения - Фредерик Шопен.flac -=- CDDA (100%)

157314980
[свернуть]

Спектр частот

[свернуть]

Скачать Fryderyk Franciszek Chopin - Юность гения - классическая музыка детям

[Ссылки могут видеть только зарегистрированные и активированные пользователи.]
[Only registered and activated users can see links.]
[свернуть]

Контрольная сумма (хеш-сумма) архива

MD5: 2464bb47352bdb6ab71f8874827a3e98
[свернуть]
My opinion of release: 9/10

Release info RInfo

Данный диск предназначен в первую очередь для детей.
Первый трек - биография Шопена в юности.

Вверх
Пользователь сказал cпасибо:
sergych (18.02.2019)
Похожие темы
Тема Автор Раздел Ответов Последнее сообщение
Классическая музыка 20 века Таша Классическая музыка (Classical music) 2 20.12.2011 17:08
Немецкая классическая музыка Таша Классическая музыка (Classical music) 4 20.12.2011 13:12
Альбом Классическая музыка детям. Музыка о природе LUСIAN Classical 1 18.12.2011 12:15
VA Классическая музыка для детей LUСIAN Classical 2 27.06.2008 23:58
Классическая Музыка МУЗЫКА Classical [FAQ] 0 04.05.2008 14:45


Метки
2006 , classical , fryderyk franciszek chopin , фредерик шопен , шопен , юность гения - классическая музыка детям

Опции темы

Ваши права в разделе
Вы не можете создавать новые темы
Вы не можете отвечать в темах
Вы не можете прикреплять вложения
Вы не можете редактировать свои сообщения

Быстрый переход



Текущее время: 13:01. Часовой пояс GMT +3.
Powered by vBulletin® Version 3.8.10
Copyright ©2000 - 2019, vBulletin Solutions, Inc. Перевод: zCarot
© 2008 - 2019 Taifun With Song
Яндекс.Метрика