TAIFUN With Song - качественная и редкая музыка
Навигация
Classical В этом разделе релизы на классическую музыку.

А знаете ли Вы, что...
Какой композитор писал музыку, будучи глухим?
«На момент написания своей знаменитой девятой симфонии Бетховен был абсолютно глух.»
 
Опции темы

  #1
Старый 17.02.2019, 23:13
TAIFUN
Admin
Досье
 
Аватар для TAIFUN
По умолчанию Ludwig van Beethoven - The Best Of


2003 - Ludwig van Beethoven - The Best Of




Исполнитель/Artist: Ludwig van Beethoven
Альбом/Album: The Best Of
Год/Year: 2003
Жанр/Genre: Classical
Страна/Country: Украина
Рекорд-лейбл/Record label: Одиссей по лицензии Intermusic S.A. через ToCo Int.
Формат/Format: Free Lossless Audio Codec (*.flac)
Качество/Quality: Lossless
Тип рипа/RIP Type: image+.cue
Продолжительность/Length: 01:09:48
Источник/Source: Собственный рип
Размер/Size: 289 MB

Сканы в комплекте

Треклист

01. Symphony No 5 op 68 in c minor
02. Bagatelle in d minor no 59 Fur elise
03. Violin concerto in d minor op 61
04. Symphony no 3 in e flat major op 55 eroica
05. Mass in c minor op86
06. Piano concerto no 5 in e flat major op 73 emperor
07. Violin romace no 1 in g major op 40
08. March of the turks the ruins of athens op 113
09. Rondo a capricio in g major op 129 rage over a lost penny
10. String quartet no 2 in g major op 18-2
11. Piano sonata no 28 in a minor op101
12. Concerto for violin cello and piano in c major op 56 triple concerto
[свернуть]

EAC лог

Exact Audio Copy V1.3 from 2. September 2016

EAC extraction logfile from 17. February 2019, 19:32

Ludwig van Beethoven / The Best Of

Used drive : ASUS DRW-24D5MT Adapter: 1 ID: 0

Read mode : Secure
Utilize accurate stream : Yes
Defeat audio cache : Yes
Make use of C2 pointers : No

Read offset correction : 6
Overread into Lead-In and Lead-Out : No
Fill up missing offset samples with silence : Yes
Delete leading and trailing silent blocks : No
Null samples used in CRC calculations : Yes
Used interface : Native Win32 interface for Win NT & 2000

Used output format : Internal WAV Routines
Sample format : 44.100 Hz; 16 Bit; Stereo


TOC of the extracted CD

Track | Start | Length | Start sector | End sector
---------------------------------------------------------
1 | 0:00.00 | 7:25.27 | 0 | 33401
2 | 7:25.27 | 2:56.58 | 33402 | 46659
3 | 10:22.10 | 10:25.25 | 46660 | 93559
4 | 20:47.35 | 5:31.52 | 93560 | 118436
5 | 26:19.12 | 6:14.55 | 118437 | 146541
6 | 32:33.67 | 8:33.03 | 146542 | 185019
7 | 41:06.70 | 7:05.37 | 185020 | 216931
8 | 48:12.32 | 1:45.18 | 216932 | 224824
9 | 49:57.50 | 6:36.15 | 224825 | 254539
10 | 56:33.65 | 5:29.65 | 254540 | 279279
11 | 62:03.55 | 2:40.57 | 279280 | 291336
12 | 64:44.37 | 5:03.32 | 291337 | 314093


Range status and errors

Selected range

Filename D:\Музыка\CLASSICAL\Людвиг ван Бетховен - Ludwig van Beethoven\2003 - The Best Of\Ludwig van Beethoven - The Best Of.wav

Peak level 90.9 %
Extraction speed 7.2 X
Range quality 100.0 %
Copy CRC B0DB1D5E
Copy OK

No errors occurred


AccurateRip summary

Track 1 cannot be verified as accurate (confidence 1) [6913627A], AccurateRip returned [3C4E8A4B] (AR v2)
Track 2 cannot be verified as accurate (confidence 1) [8958C396], AccurateRip returned [E4F988CD] (AR v2)
Track 3 cannot be verified as accurate (confidence 1) [45F80957], AccurateRip returned [6CBDE53A] (AR v2)
Track 4 cannot be verified as accurate (confidence 1) [F19B014D], AccurateRip returned [2A6A0A3D] (AR v2)
Track 5 cannot be verified as accurate (confidence 1) [753AFCD0], AccurateRip returned [8E4D2E75] (AR v2)
Track 6 cannot be verified as accurate (confidence 1) [C548CDDE], AccurateRip returned [560749BA] (AR v2)
Track 7 cannot be verified as accurate (confidence 1) [614DCA2D], AccurateRip returned [E202101F] (AR v2)
Track 8 cannot be verified as accurate (confidence 1) [79C1A9BA], AccurateRip returned [10234918] (AR v2)
Track 9 cannot be verified as accurate (confidence 1) [97F8482B], AccurateRip returned [E83B229A] (AR v2)
Track 10 cannot be verified as accurate (confidence 1) [D89E89E8], AccurateRip returned [95E367BE] (AR v2)
Track 11 cannot be verified as accurate (confidence 1) [FB9A5172], AccurateRip returned [73782D82] (AR v2)
Track 12 cannot be verified as accurate (confidence 1) [E937E3D7], AccurateRip returned [E8D75FB0] (AR v2)

No tracks could be verified as accurate
You may have a different pressing from the one(s) in the database

End of status report

---- CUETools DB Plugin V2.1.6

[CTDB TOCID: mvyThJJ5flyG.Md87jwJvgoSp.w-] found
Submit result: mvyThJJ5flyG.Md87jwJvgoSp.w- has been confirmed
Track | CTDB Status
1 | (2/2) Accurately ripped
2 | (2/2) Accurately ripped
3 | (2/2) Accurately ripped
4 | (2/2) Accurately ripped
5 | (2/2) Accurately ripped
6 | (2/2) Accurately ripped
7 | (2/2) Accurately ripped
8 | (2/2) Accurately ripped
9 | (2/2) Accurately ripped
10 | (2/2) Accurately ripped
11 | (2/2) Accurately ripped
12 | (2/2) Accurately ripped


==== Log checksum B996AB74460B2A15AF420B4C50991806021CDE4DB4C29F812A088E5E571E84F0 ====
[свернуть]

Файл CUE

REM GENRE Classical
REM DATE 2003
REM DISCID D6105B0C
REM COMMENT "ExactAudioCopy v1.3"
PERFORMER "Ludwig van Beethoven"
TITLE "The Best Of"
REM COMPOSER ""
FILE "Ludwig van Beethoven - The Best Of.flac" WAVE
TRACK 01 AUDIO
TITLE "Symphony No 5 op 68 in c minor"
PERFORMER "Ludwig van Beethoven"
REM COMPOSER ""
INDEX 01 00:00:00
TRACK 02 AUDIO
TITLE "Bagatelle in d minor no 59 Fur elise"
PERFORMER "Ludwig van Beethoven"
REM COMPOSER ""
INDEX 01 07:25:27
TRACK 03 AUDIO
TITLE "violin concerto in d minor op 61"
PERFORMER "Ludwig van Beethoven"
REM COMPOSER ""
INDEX 01 10:22:10
TRACK 04 AUDIO
TITLE "symphony no 3 in e flat major op 55 eroica"
PERFORMER "Ludwig van Beethoven"
REM COMPOSER ""
INDEX 01 20:47:35
TRACK 05 AUDIO
TITLE "mass in c minor op86"
PERFORMER "Ludwig van Beethoven"
REM COMPOSER ""
INDEX 01 26:19:12
TRACK 06 AUDIO
TITLE "piano concerto no 5 in e flat major op 73 emperor"
PERFORMER "Ludwig van Beethoven"
REM COMPOSER ""
INDEX 01 32:33:67
TRACK 07 AUDIO
TITLE "Violin romace no 1 in g major op 40"
PERFORMER "Ludwig van Beethoven"
REM COMPOSER ""
INDEX 01 41:06:70
TRACK 08 AUDIO
TITLE "march of the turks the ruins of athens op 113"
PERFORMER "Ludwig van Beethoven"
REM COMPOSER ""
INDEX 01 48:12:32
TRACK 09 AUDIO
TITLE "rondo a capricio in g major op 129 rage over a lost penny"
PERFORMER "Ludwig van Beethoven"
REM COMPOSER ""
INDEX 01 49:57:50
TRACK 10 AUDIO
TITLE "string quartet no 2 in g major op 18-2"
PERFORMER "Ludwig van Beethoven"
REM COMPOSER ""
INDEX 01 56:33:65
TRACK 11 AUDIO
TITLE "piano sonata no 28 in a minor op101"
PERFORMER "Ludwig van Beethoven"
REM COMPOSER ""
INDEX 01 62:03:55
TRACK 12 AUDIO
TITLE "concerto for violin cello and piano in c major op 56 triple concerto"
PERFORMER "Ludwig van Beethoven"
REM COMPOSER ""
INDEX 01 64:44:37
[свернуть]

Лог проверки качества

AUDIOCHECKER v2.0 beta (build 457) - by Dester - [Ссылки могут видеть только зарегистрированные и активированные пользователи.]
[Only registered and activated users can see links.]
~~~~~~~~~~~~~~~~~~~~~~~~~~~~~~~~~~
-=== НЕ РЕДАКТИРУЙТЕ ЭТОТ ФАЙЛ! ===-

Путь: ...\2003 - The Best Of

1 -=- Ludwig van Beethoven - The Best Of.flac -=- CDDA (58%)

34644212
[свернуть]

Спектр частот

[свернуть]

Скачать Ludwig van Beethoven - The Best Of

[Ссылки могут видеть только зарегистрированные и активированные пользователи.]
[Only registered and activated users can see links.]
[свернуть]

Контрольная сумма (хеш-сумма) архива

MD5: fe950bc4010bebc7aed01b5a8957564c
[свернуть]
Release info RInfo

Очередной "шедевр" от украинских издателей CD 2000-ых годов.
Типография тоже "радует" , впрочем можете сами сравнить код-во композиций в треклисте с количеством композиций на обложке.


Последний раз редактировалось TAIFUN, 17.02.2019 в 23:29.
Вверх
Пользователь сказал cпасибо:
sergych (18.02.2019)
Похожие темы
Тема Автор Раздел Ответов Последнее сообщение
Релиз Riccardo Chailly and Leipzig Gewandhaus Orchestra - Ludwig van Beethoven: Brahms: The PUPOKIN Classical 0 08.11.2013 09:28
Альбом Beethoven - Violinkonzert in D major Op.61 PUPOKIN Classical 0 12.10.2010 10:11
Альбом Ludwig van Beethoven - Eroica PUPOKIN Classical 0 24.02.2010 10:13
Альбом Ludwig Minkus - Don Quixote - Ballet in Three Acts PUPOKIN Classical 0 28.08.2009 17:42
Альбом Beethoven: Piano Sonatas - Artur Pizarro PUPOKIN Classical 0 29.01.2009 13:28


Метки
2003 , classical , ludwig van beethoven , the best of , бетховен , людвиг ван бетховен

Опции темы

Ваши права в разделе
Вы не можете создавать новые темы
Вы не можете отвечать в темах
Вы не можете прикреплять вложения
Вы не можете редактировать свои сообщения

Быстрый переход



Текущее время: 09:33. Часовой пояс GMT +3.
Powered by vBulletin® Version 3.8.10
Copyright ©2000 - 2019, vBulletin Solutions, Inc. Перевод: zCarot
© 2008 - 2019 Taifun With Song
Яндекс.Метрика