TAIFUN With Song - качественная и редкая музыка
Навигация
Вернуться   TAIFUN With Song - качественная и редкая музыка > Music (обменник) > Rock > Art Rock
Расширенный поиск
Art Rock ART ROCK - под этим термином подразумевается такая форма рока, в которой совмещаются электронное звучание, ритм-энд-блюз, восточный и средневековый европейский фольклор, классика и джаз

А знаете ли Вы, что...
Почему учитель вокала остановил занятия с Джонни Кэшем и посоветовал ему никогда больше не учиться пению?
«Легенда кантри Джонни Кэш рос в небогатой фермерской семье. Увидев его талант к пению, мать собрала денег, чтобы Джонни посещал уроки вокала. Однако после трёх уроков учитель остановил обучение и сказал ему, чтобы тот никогда больше не брал подобных уроков и не отклонялся от данного природой голоса.»
 
Опции темы

  #1
Старый 17.02.2019, 13:16
TAIFUN
Admin
Досье
 
Аватар для TAIFUN
По умолчанию Диалог - Квадратный человек


[24 bit/96 kHz] 1983 - Диалог - Квадратный человек




Исполнитель/Artist: Диалог
Альбом/Album: Квадратный человек
Год/Year: 1983
Жанр/Genre: Art Rock
Страна/Country: СССР
Рекорд-лейбл/Record label: Самиздат
Формат/Format: Free Lossless Audio Codec (*.flac)
Качество/Quality: Lossless
Тип рипа/RIP Type: image+.cue
Продолжительность/Length: 00:40:58
Источник/Source: Из интернета
Размер/Size: 944 MB


Треклист

01. Все летают
02. Эвридика
03. День рождения
04. Квадратный человек
05. Фея у фонтана
06. День из жизни моей
07. Не стань покорным
08. Сверчок
09. Космический сон
10. Немое кино
11. Маргарита
[свернуть]

Превью на YouTube

[свернуть]

Файл CUE

REM GENRE Rock
REM DATE 1983
REM COMMENT Оцифровка SerMok (из коллекции Сергея Шарапова)
PERFORMER "Диалог"
TITLE "Квадратный человек"
FILE "Диалог - Квадратный человек - 1983.flac" WAVE
TRACK 01 AUDIO
TITLE "Все летают"
INDEX 01 00:00:00
TRACK 02 AUDIO
TITLE "Эвридика"
INDEX 01 05:09:00
TRACK 03 AUDIO
TITLE "День рождения"
INDEX 01 11:06:35
TRACK 04 AUDIO
TITLE "Квадратный человек"
INDEX 01 14:49:00
TRACK 05 AUDIO
TITLE "Фея у фонтана"
INDEX 01 17:08:20
TRACK 06 AUDIO
TITLE "День из жизни моей"
INDEX 01 20:29:30
TRACK 07 AUDIO
TITLE "Не стань покорным"
INDEX 01 23:51:35
TRACK 08 AUDIO
TITLE "Сверчок"
INDEX 01 27:28:00
TRACK 09 AUDIO
TITLE "Космический сон"
INDEX 01 32:12:45
TRACK 10 AUDIO
TITLE "Немое кино"
INDEX 01 34:49:30
TRACK 11 AUDIO
TITLE "Маргарита"
INDEX 01 38:05:40
[свернуть]

Спектр частот

[свернуть]

Скачать [24 bit/96 kHz] Диалог - Квадратный человек

[Ссылки могут видеть только зарегистрированные и активированные пользователи.]
[Only registered and activated users can see links.]
[свернуть]

Контрольная сумма (хеш-сумма) архива

MD5: 6f4ecd3d347ba66feea4ebfae9a54925
[свернуть]
My opinion of release: 9/10

Release info RInfo

Оцифровка произведена: SerMok
Устройство воспроизведения: магнитофон-приставка "Олимп МПК-005С"
АЦП: E-MU 1616m
Программа-оцифровщик: Steinberg WaveLab 6
Обработка: минимально возможная

Благодарность Сергею Шарапову (г. Ессентуки) за предоставленную для оцифровки катушку с этим магнитоальбомом.

Вверх
Пользователь сказал cпасибо:
sergych (18.02.2019)
Похожие темы
Тема Автор Раздел Ответов Последнее сообщение
Альбом Человек-Животное - Криптозоология mustol Russian Rock 0 08.03.2017 09:53
Саундтрек Iron Man 2 / Железный человек 2 PUPOKIN Саундтреки 0 26.07.2010 10:05
Альбом Чичерина - Человек-птица PUPOKIN Russian Rock 0 07.03.2010 11:13
Железный человек DarkDan Наука/Фантастика 3 15.08.2008 17:59
Made Man - Человек мафии dmitriy89 Игры 0 14.07.2008 03:29


Метки
1983 , art rock , диалог , квадратный человек

Опции темы

Ваши права в разделе
Вы не можете создавать новые темы
Вы не можете отвечать в темах
Вы не можете прикреплять вложения
Вы не можете редактировать свои сообщения

Быстрый переход



Текущее время: 09:21. Часовой пояс GMT +3.
Powered by vBulletin® Version 3.8.10
Copyright ©2000 - 2019, vBulletin Solutions, Inc. Перевод: zCarot
© 2008 - 2019 Taifun With Song
Яндекс.Метрика