TAIFUN With Song - качественная и редкая музыка
Навигация
Вернуться   TAIFUN With Song - качественная и редкая музыка > Music (обменник) > Rock
Расширенный поиск
А знаете ли Вы, что...
Кто написал сонату, в которой имитируется половой акт?
«Чешский авангардный композитор Эрвин Шульгоф в 1919 году написал Эротическую сонату, которая по сей день исполняется на музыкальных фестивалях. Фактически соната состоит из одной партии для женского голоса, имитирующего стоны и вздохи при половом акте.»
 
Опции темы

  #1
Старый 15.02.2019, 07:55
sergych
Координатор
Досье
 
Аватар для sergych
Релиз The Band - Radio Broadcast 1970. The Night They Drove Old Dixie Down


1981 - The Band - Radio Broadcast 1970. The Night They Drove Old Dixie Down




Исполнитель/Artist: The Band
Альбом/Album: Radio Broadcast 1970. The Night They Drove Old Dixie Down
Год/Year: 1981
Жанр/Genre: Roots rock, Americana, folk rock, country rock
Рекорд-лейбл/Record label: Laser Media
Номер в каталоге/Catalogue #: LM 647
Формат/Format: Free Lossless Audio Codec (*.flac)
Качество/Quality: Lossless
Тип рипа/RIP Type: image+.cue
Продолжительность/Length: 00:39:47
Источник/Source: Собственный рип
Размер/Size: 281.4 MB

Сканы в комплекте

Треклист

01. The Night They Drove Old Dixie Down [0:05:02.23]
02. Across The Great Divide (Take 1) [0:03:07.30]
03. W.S. Walcott Medicine Show (Take 1) [0:03:40.38]
04. W.S. Walcott Medicine Show (Take 2) [0:03:35.23]
05. Life Is A Carnival (Take 1) [0:02:51.08]
06. Life Is A Carnival (Take 2) [0:04:03.53]
07. Across The Great Divide (Take 2) [0:03:16.15]
08. Unfaithful Servant [0:04:18.00]
09. Chestfever [0:05:15.15]
10. Rag Mama Rag (Take 1) [0:03:41.38]
11. Rag Mama Rag (Take 2) [0:00:56.18]
[свернуть]

Превью на YouTube

[свернуть]

Исполнители/Performers

Rick Danko
Levon Helm
Garth Hudson
Richard Manuel
Robbie Robertson
Allen Toussaint
Howard Johnson
Snooky Young
Joe Farrell
[свернуть]

EAC лог

Exact Audio Copy V1.3 from 2. September 2016

EAC extraction logfile from 9. February 2019, 17:43

The Band / Radio Broadcast 1970. The Night They Drove Old Dixie Down

Used drive : PIONEER DVD-RW DVR-220L Adapter: 1 ID: 0

Read mode : Secure
Utilize accurate stream : Yes
Defeat audio cache : Yes
Make use of C2 pointers : No

Read offset correction : 6
Overread into Lead-In and Lead-Out : No
Fill up missing offset samples with silence : Yes
Delete leading and trailing silent blocks : No
Null samples used in CRC calculations : Yes
Used interface : Installed external ASPI interface

Used output format : User Defined Encoder
Selected bitrate : 1024 kBit/s
Quality : High
Add ID3 tag : No
Command line compressor : C:\Program Files (x86)\Exact Audio Copy\Flac\flac.exe
Additional command line options : -6 -V -T "ARTIST=%artist%" -T "TITLE=%title%" -T "ALBUM=%albumtitle%" -T "DATE=%year%" -T "TRACKNUMBER=%tracknr%" -T "GENRE=%genre%" -T "COMMENT=%comment%" -T "BAND=%albuminterpret%" -T "ALBUMARTIST=%albuminterpret%" -T "COMPOSER=%composer%" %haslyrics%--tag-from-file=LYRICS="%lyricsfile%"%haslyrics% -T "DISCNUMBER=%cdnumber%" -T "TOTALDISCS=%totalcds%" -T "TOTALTRACKS=%numtracks%" %hascover%--picture="%coverfile%"%hascover% %source% -o %dest%


TOC of the extracted CD

Track | Start | Length | Start sector | End sector
---------------------------------------------------------
1 | 0:00.00 | 5:02.23 | 0 | 22672
2 | 5:02.23 | 3:07.30 | 22673 | 36727
3 | 8:09.53 | 3:40.38 | 36728 | 53265
4 | 11:50.16 | 3:35.23 | 53266 | 69413
5 | 15:25.39 | 2:51.08 | 69414 | 82246
6 | 18:16.47 | 4:03.53 | 82247 | 100524
7 | 22:20.25 | 3:16.15 | 100525 | 115239
8 | 25:36.40 | 4:18.00 | 115240 | 134589
9 | 29:54.40 | 5:15.15 | 134590 | 158229
10 | 35:09.55 | 3:41.38 | 158230 | 174842
11 | 38:51.18 | 0:56.18 | 174843 | 179060


Range status and errors

Selected range

Filename C:\mm\The Band\1981 - Radio Broadcast 1970. The Night They Drove Old Dixie Down [LM 647]\The Band - Radio Broadcast 1970. The Night They Drove Old Dixie Down.wav

Peak level 98.6 %
Extraction speed 6.8 X
Range quality 100.0 %
Test CRC 62D50145
Copy CRC 62D50145
Copy OK

No errors occurred


AccurateRip summary

Track 1 accurately ripped (confidence 1) [1CA2CE5A] (AR v2)
Track 2 accurately ripped (confidence 1) [59DC6558] (AR v2)
Track 3 accurately ripped (confidence 1) [DFEC5154] (AR v2)
Track 4 accurately ripped (confidence 1) [54EC9E3D] (AR v2)
Track 5 accurately ripped (confidence 1) [F0CE196B] (AR v2)
Track 6 accurately ripped (confidence 1) [F59FF573] (AR v2)
Track 7 accurately ripped (confidence 1) [2E7AE56B] (AR v2)
Track 8 accurately ripped (confidence 1) [71C943F4] (AR v2)
Track 9 accurately ripped (confidence 1) [3A806E09] (AR v2)
Track 10 accurately ripped (confidence 1) [08AFC055] (AR v2)
Track 11 accurately ripped (confidence 1) [39A965EF] (AR v2)

All tracks accurately ripped

End of status report
[свернуть]

Файл CUE

REM GENRE Rock
REM DATE 1981
REM DISCID 8709530B
REM COMMENT "ExactAudioCopy v1.3"
PERFORMER "The Band"
TITLE "Radio Broadcast 1970. The Night They Drove Old Dixie Down"
REM COMPOSER ""
FILE "The Band - Radio Broadcast 1970. The Night They Drove Old Dixie Down.flac" WAVE
TRACK 01 AUDIO
TITLE "The Night They Drove Old Dixie Down"
PERFORMER "The Band"
REM COMPOSER ""
INDEX 01 00:00:00
TRACK 02 AUDIO
TITLE "Across The Great Divide (Take 1)"
PERFORMER "The Band"
REM COMPOSER ""
INDEX 01 05:02:23
TRACK 03 AUDIO
TITLE "W.S. Walcott Medicine Show (Take 1)"
PERFORMER "The Band"
REM COMPOSER ""
INDEX 01 08:09:53
TRACK 04 AUDIO
TITLE "W.S. Walcott Medicine Show (Take 2)"
PERFORMER "The Band"
REM COMPOSER ""
INDEX 01 11:50:16
TRACK 05 AUDIO
TITLE "Life Is A Carnival (Take 1)"
PERFORMER "The Band"
REM COMPOSER ""
INDEX 01 15:25:39
TRACK 06 AUDIO
TITLE "Life Is A Carnival (Take 2)"
PERFORMER "The Band"
REM COMPOSER ""
INDEX 01 18:16:47
TRACK 07 AUDIO
TITLE "Across The Great Divide (Take 2)"
PERFORMER "The Band"
REM COMPOSER ""
INDEX 01 22:20:25
TRACK 08 AUDIO
TITLE "Unfaithful Servant"
PERFORMER "The Band"
REM COMPOSER ""
INDEX 01 25:36:40
TRACK 09 AUDIO
TITLE "Chestfever"
PERFORMER "The Band"
REM COMPOSER ""
INDEX 01 29:54:40
TRACK 10 AUDIO
TITLE "Rag Mama Rag (Take 1)"
PERFORMER "The Band"
REM COMPOSER ""
INDEX 01 35:09:55
TRACK 11 AUDIO
TITLE "Rag Mama Rag (Take 2)"
PERFORMER "The Band"
REM COMPOSER ""
INDEX 01 38:51:18
[свернуть]

Лог проверки качества

AUDIOCHECKER v2.0 beta (build 457) - by Dester - [Ссылки могут видеть только зарегистрированные и активированные пользователи.]
[Only registered and activated users can see links.]
~~~~~~~~~~~~~~~~~~~~~~~~~~~~~~~~~~
-=== НЕ РЕДАКТИРУЙТЕ ЭТОТ ФАЙЛ! ===-

Путь: ...\1981 - Radio Broadcast 1970. The Night They Drove Old Dixie Down [LM 647]

1 -=- The Band - Radio Broadcast 1970. The Night They Drove Old Dixie Down.flac -=- MPEG (95%)

131124532
[свернуть]

Спектр частот

[свернуть]

Скачать The Band - Radio Broadcast 1970. The Night They Drove Old Dixie Down

[Ссылки могут видеть только зарегистрированные и активированные пользователи.]
[Only registered and activated users can see links.]

password: sergych
[свернуть]

Контрольная сумма (хеш-сумма) архива

MD5: 6fc0917c12f0f45bd5f7ab191e0f1519
[свернуть]
My opinion of release: 9/10

Release info RInfo

This performance was broadcast live on local radio station, allowing everyone in the vicinity to hear this dynamic gig. It may have been one of The Band's last live performances, but the passion in their music showed no sign of wavering.
__________________
TAIFUN.Wings of Soul

Вверх
Пользователь сказал cпасибо:
TAIFUN (15.02.2019)
Похожие темы
Тема Автор Раздел Ответов Последнее сообщение
Релиз Larry Garner & The Noman Beaker Band - Good Night In Vienna PUPOKIN Jazz и Blues 0 16.10.2013 09:20
Релиз Yelawolf & M16 - Heart Of Dixie PUPOKIN Зарубежный 0 05.07.2012 09:38
Релиз Dixie Chicks - The Essential PUPOKIN Country 0 30.08.2010 10:46
[RADIO] Markus Schulz - Global DJ Broadcast TAIFUN Радиостанции 0 25.08.2010 20:13
Альбом Chicago - Night & Day. Big Band sergych Pop Rock 0 09.11.2008 17:22


Метки
1970 , 1981 , americana , broadcast , country rock , folk rock , radio , roots rock , the band , the night they drove old dixie down

Опции темы

Ваши права в разделе
Вы не можете создавать новые темы
Вы не можете отвечать в темах
Вы не можете прикреплять вложения
Вы не можете редактировать свои сообщения

Быстрый переход



Текущее время: 09:20. Часовой пояс GMT +3.
Powered by vBulletin® Version 3.8.10
Copyright ©2000 - 2019, vBulletin Solutions, Inc. Перевод: zCarot
© 2008 - 2019 Taifun With Song
Яндекс.Метрика