TAIFUN With Song - качественная и редкая музыка
Навигация
Jazz и Blues Гибкая ритмика, импровизационное начало, гармонии и мелодии - все это Jazz. Blues - жизнеутверждающая музыка, рожденная из душевной боли

А знаете ли Вы, что...
Откуда взялось выражение «играть на нервах»?
«Когда древние врачи открыли значение нервов в организме человека, они назвали их по сходству со струнами музыкальных инструментов тем же словом — nervus. Отсюда возникло выражение для раздражающих действий — «играть на нервах».»
 
Опции темы

  #1
Старый 10.08.2016, 23:52
sergych
Координатор
Досье
 
Аватар для sergych
Релиз David Benoit - Earthglow


2010 - David Benoit - Earthglow




Исполнитель/Artist: David Benoit
Альбом/Album: Earthglow
Год/Year: 2010
Жанр/Genre: Jazz Fusion, Smooth Jazz
Страна/Country: Соединённые Штаты
Рекорд-лейбл/Record label: Concord Music
Номер в каталоге/Catalogue #: HUI-31975-02
Формат/Format: Free Lossless Audio Codec (*.flac)
Качество/Quality: Lossless
Тип рипа/RIP Type: image+.cue
Продолжительность/Length: 00:48:24
Источник/Source: Собственный рип
Размер/Size: 321.7 MB

Сканы в комплекте

Треклист

01. Botswana Bossa Nova [0:03:55.09]
02. Will's Chill [0:04:33.72]
03. Unbelievable [0:04:08.33]
04. Easy Day [0:04:40.60]
05. Straight Away [0:04:14.02]
06. New Creation [0:03:25.60]
07. Earthglow [0:04:25.37]
08. Sneaky As A Cat [0:04:07.56]
09. Downtime [0:04:15.19]
10. Brownie's Gone [0:04:35.59]
11. Freedom At Midnight (The Schroeder Variations) [0:06:01.71]
[свернуть]

youtube.com

[свернуть]

EAC лог

Exact Audio Copy V1.1 from 23. June 2015

EAC extraction logfile from 3. August 2016, 21:17

David Benoit / Earthglow

Used drive : PLEXTOR DVDR PX-716A Adapter: 1 ID: 0

Read mode : Secure
Utilize accurate stream : Yes
Defeat audio cache : Yes
Make use of C2 pointers : No

Read offset correction : 30
Overread into Lead-In and Lead-Out : No
Fill up missing offset samples with silence : Yes
Delete leading and trailing silent blocks : No
Null samples used in CRC calculations : Yes
Used interface : Native Win32 interface for Win NT & 2000

Used output format : User Defined Encoder
Selected bitrate : 1024 kBit/s
Quality : High
Add ID3 tag : No
Command line compressor : C:\Program Files (x86)\Exact Audio Copy\FLAC\FLAC.EXE
Additional command line options : -6 -V -T "ARTIST=%artist%" -T "TITLE=%title%" -T "ALBUM=%albumtitle%" -T "DATE=%year%" -T "TRACKNUMBER=%tracknr%" -T "GENRE=%genre%" -T "COMMENT=%comment%" -T "BAND=%albuminterpret%" -T "ALBUMARTIST=%albuminterpret%" -T "COMPOSER=%composer%" %haslyrics%--tag-from-file=LYRICS="%lyricsfile%"%haslyrics% -T "DISCNUMBER=%cdnumber%" -T "TOTALDISCS=%totalcds%" -T "TOTALTRACKS=%numtracks%" %hascover%--picture="%coverfile%"%hascover% %source% -o %dest%


TOC of the extracted CD

Track | Start | Length | Start sector | End sector
---------------------------------------------------------
1 | 0:00.00 | 3:55.09 | 0 | 17633
2 | 3:55.09 | 4:33.72 | 17634 | 38180
3 | 8:29.06 | 4:08.33 | 38181 | 56813
4 | 12:37.39 | 4:40.60 | 56814 | 77873
5 | 17:18.24 | 4:14.02 | 77874 | 96925
6 | 21:32.26 | 3:25.60 | 96926 | 112360
7 | 24:58.11 | 4:25.37 | 112361 | 132272
8 | 29:23.48 | 4:07.56 | 132273 | 150853
9 | 33:31.29 | 4:15.19 | 150854 | 169997
10 | 37:46.48 | 4:35.59 | 169998 | 190681
11 | 42:22.32 | 6:01.71 | 190682 | 217827


Range status and errors

Selected range

Filename C:\mm\David Benoit\2010 - Earthglow [HUI-31975-02]\David Benoit - Earthglow.wav

Peak level 100.0 %
Extraction speed 12.3 X
Range quality 100.0 %
Test CRC 658607BE
Copy CRC 658607BE
Copy OK

No errors occurred


AccurateRip summary

Track 1 accurately ripped (confidence 2) [F45F0C9E] (AR v1)
Track 2 accurately ripped (confidence 2) [2D37AB19] (AR v1)
Track 3 accurately ripped (confidence 2) [4C5727EE] (AR v1)
Track 4 accurately ripped (confidence 2) [DD0E2CAF] (AR v1)
Track 5 accurately ripped (confidence 2) [D76918A3] (AR v1)
Track 6 accurately ripped (confidence 2) [BBDD66D2] (AR v1)
Track 7 accurately ripped (confidence 2) [E3272366] (AR v1)
Track 8 accurately ripped (confidence 2) [8689C87B] (AR v1)
Track 9 accurately ripped (confidence 2) [986A5C95] (AR v1)
Track 10 accurately ripped (confidence 2) [077EA3E8] (AR v1)
Track 11 accurately ripped (confidence 2) [5D0FD6F1] (AR v1)

All tracks accurately ripped

End of status report

---- CUETools DB Plugin V2.1.6

[CTDB TOCID: 8dOVsSxQxq_KWrCRbJ6.p32UbiU-] found
Submit result: 8dOVsSxQxq_KWrCRbJ6.p32UbiU- has been confirmed
Track | CTDB Status
1 | (23/23) Accurately ripped
2 | (23/23) Accurately ripped
3 | (23/23) Accurately ripped
4 | (22/23) Accurately ripped
5 | (23/23) Accurately ripped
6 | (23/23) Accurately ripped
7 | (23/23) Accurately ripped
8 | (23/23) Accurately ripped
9 | (23/23) Accurately ripped
10 | (23/23) Accurately ripped
11 | (22/23) Accurately ripped
[свернуть]

Файл CUE

REM GENRE Jazz
REM DATE 2010
REM DISCID 7F0B580B
REM COMMENT "ExactAudioCopy v1.1"
PERFORMER "David Benoit"
TITLE "Earthglow"
FILE "David Benoit - Earthglow.flac" WAVE
TRACK 01 AUDIO
TITLE "Botswana Bossa Nova"
PERFORMER "David Benoit"
INDEX 01 00:00:00
TRACK 02 AUDIO
TITLE "Will's Chill"
PERFORMER "David Benoit"
INDEX 01 03:55:09
TRACK 03 AUDIO
TITLE "Unbelievable"
PERFORMER "David Benoit"
INDEX 01 08:29:06
TRACK 04 AUDIO
TITLE "Easy Day"
PERFORMER "David Benoit"
INDEX 01 12:37:39
TRACK 05 AUDIO
TITLE "Straight Away"
PERFORMER "David Benoit"
INDEX 01 17:18:24
TRACK 06 AUDIO
TITLE "New Creation"
PERFORMER "David Benoit"
INDEX 01 21:32:26
TRACK 07 AUDIO
TITLE "Earthglow"
PERFORMER "David Benoit"
INDEX 01 24:58:11
TRACK 08 AUDIO
TITLE "Sneaky As A Cat"
PERFORMER "David Benoit"
INDEX 01 29:23:48
TRACK 09 AUDIO
TITLE "Downtime"
PERFORMER "David Benoit"
INDEX 01 33:31:29
TRACK 10 AUDIO
TITLE "Brownie's Gone"
PERFORMER "David Benoit"
INDEX 01 37:46:48
TRACK 11 AUDIO
TITLE "Freedom At Midnight (The Schroeder Variations)"
PERFORMER "David Benoit"
INDEX 01 42:22:32
[свернуть]

Лог проверки качества

AUDIOCHECKER v2.0 beta (build 457) - by Dester - [Ссылки могут видеть только зарегистрированные и активированные пользователи.]
[Only registered and activated users can see links.]
~~~~~~~~~~~~~~~~~~~~~~~~~~~~~~~~~~
-=== НЕ РЕДАКТИРУЙТЕ ЭТОТ ФАЙЛ! ===-

Путь: ...\2010 - Earthglow [HUI-31975-02]

1 -=- David Benoit - Earthglow.flac -=- CDDA (100%)

80187460
[свернуть]

Спектр частот

[свернуть]

Скачать David Benoit - Earthglow

[Ссылки могут видеть только зарегистрированные и активированные пользователи.]
[Only registered and activated users can see links.]

password: sergych
[свернуть]
My opinion of release: 10/10
__________________
TAIFUN.Wings of Soul

Вверх
2 пользователя(ей) сказали cпасибо:
johnsilver (27.08.2017), swint68 (11.08.2016)
Похожие темы
Тема Автор Раздел Ответов Последнее сообщение
Сборник David Benoit ‎– Jazz For Peanuts (A Retrospective Of The Charlie Brown TV Themes) sergych Jazz и Blues 0 06.08.2016 18:24
Альбом David Benoit & Russ Freeman - The Benoit / Freeman Project 2 sergych Jazz и Blues 0 10.05.2015 18:18
Альбом David Benoit & Russ Freeman - The Benoit / Freeman Project sergych Jazz и Blues 1 11.04.2014 18:05
Релиз David Nevue - Awakenings: The Best of David Nevue 2001-2010 fly123 New age 0 06.05.2012 13:47
Релиз Tab Benoit - Medicine PUPOKIN Jazz и Blues 0 28.04.2011 10:50


Метки
2010 , david benoit , earthglow , jazz fusion , smooth jazz

Опции темы

Ваши права в разделе
Вы не можете создавать новые темы
Вы не можете отвечать в темах
Вы не можете прикреплять вложения
Вы не можете редактировать свои сообщения

Быстрый переход



Текущее время: 09:22. Часовой пояс GMT +3.
Powered by vBulletin® Version 3.8.10
Copyright ©2000 - 2019, vBulletin Solutions, Inc. Перевод: zCarot
© 2008 - 2019 Taifun With Song
Яндекс.Метрика