TAIFUN With Song - качественная и редкая музыка
Навигация
Вернуться   TAIFUN With Song - качественная и редкая музыка > Music (обменник) > Другие направления музыки > Jazz и Blues
Расширенный поиск
Jazz и Blues Гибкая ритмика, импровизационное начало, гармонии и мелодии - все это Jazz. Blues - жизнеутверждающая музыка, рожденная из душевной боли

А знаете ли Вы, что...
Какой знаменитый музыкант играл в метро, и люди почти не проявили интерес к его музыке?
«Один из лучших скрипачей американец Джошуа Белл 12 января 2007 года согласился принять участие в эксперименте — утром на протяжении 45 минут он играл в вестибюле станции метро под видом обычного уличного музыканта. Из тысячи прошедших мимо людей только семь заинтересовались музыкой.»
 
Опции темы

  #1
Старый 06.08.2016, 18:24
sergych
Координатор
Досье
 
Аватар для sergych
Релиз David Benoit ‎– Jazz For Peanuts (A Retrospective Of The Charlie Brown TV Themes)


2008 - David Benoit ‎– Jazz For Peanuts (A Retrospective Of The Charlie Brown TV Themes)




Исполнитель/Artist: David Benoit
Альбом/Album: Jazz For Peanuts (A Retrospective Of The Charlie Brown TV Themes)
Год/Year: 2008
Жанр/Genre: Jazz Fusion, Smooth Jazz
Страна/Country: Соединённые Штаты
Рекорд-лейбл/Record label: Concord Music / PEAK Records
Номер в каталоге/Catalogue #: PKD-30454
Формат/Format: Free Lossless Audio Codec (*.flac)
Качество/Quality: Lossless
Тип рипа/RIP Type: image+.cue
Продолжительность/Length: 00:40:31
Источник/Source: Собственный рип
Размер/Size: 293 MB

Сканы в комплекте

Треклист

01. David Benoit & Christian Scott / You're In Love, Charlie Brown [0:04:05.64]
(from the TV Special "You're in Love, Charlie Brown")
02. David Benoit & Wynton Marsalis Septet / The Buggy Ride [0:04:36.42]
(from the TV Mini-Series "This Is America, Charlie Brown: The Wright Brothers at Kitty Hawk")
03. David Benoit & Dave Brubeck / Benjamin [0:03:48.40]
(from the TV Mini-Series "This Is America, Charlie Brown: The NASA Space Station")
04. The Great Pumpkin Waltz [0:04:18.50]
(from the TV Special "It's The Great Pumpkin, Charlie Brown")
05. David Benoit & Taylor Eigsti / Wild Kids [0:04:08.74]
(from the TV Mini-Series "This is America, Charlie Brown: The Great
Inventors")
06. David Benoit & Kenny G / Breadline Blues [0:04:10.49]
(from the TV Mini-Series "This Is America, Charlie Brown: The Smithsonian and the Presidency")
07. Be My Valentine [0:04:36.62]
(from the TV Special "Be My Valentine, Charlie Brown")
08. David Benoit & Christian Scott / Rollerblading [0:03:53.02]
(from the TV Special "It Was My Best Birthday Ever, Charlie Brown!")
09. Re-Run's Theme [0:03:47.36]
(from the TV Special "I Want a Dog for Christmas, Charlie Brown")
10. David Benoit & Vince Guaraldi / Linus And Lucy [0:03:04.46]
(from the TV Special "A Charlie Brown Christmas")
[свернуть]

youtube.com

[свернуть]

EAC лог

Exact Audio Copy V1.1 from 23. June 2015

EAC extraction logfile from 3. August 2016, 23:48

David Benoit / Jazz For Peanuts

Used drive : PLEXTOR DVDR PX-716A Adapter: 1 ID: 0

Read mode : Secure
Utilize accurate stream : Yes
Defeat audio cache : Yes
Make use of C2 pointers : No

Read offset correction : 30
Overread into Lead-In and Lead-Out : No
Fill up missing offset samples with silence : Yes
Delete leading and trailing silent blocks : No
Null samples used in CRC calculations : Yes
Used interface : Native Win32 interface for Win NT & 2000

Used output format : User Defined Encoder
Selected bitrate : 1024 kBit/s
Quality : High
Add ID3 tag : No
Command line compressor : C:\Program Files (x86)\Exact Audio Copy\FLAC\FLAC.EXE
Additional command line options : -6 -V -T "ARTIST=%artist%" -T "TITLE=%title%" -T "ALBUM=%albumtitle%" -T "DATE=%year%" -T "TRACKNUMBER=%tracknr%" -T "GENRE=%genre%" -T "COMMENT=%comment%" -T "BAND=%albuminterpret%" -T "ALBUMARTIST=%albuminterpret%" -T "COMPOSER=%composer%" %haslyrics%--tag-from-file=LYRICS="%lyricsfile%"%haslyrics% -T "DISCNUMBER=%cdnumber%" -T "TOTALDISCS=%totalcds%" -T "TOTALTRACKS=%numtracks%" %hascover%--picture="%coverfile%"%hascover% %source% -o %dest%


TOC of the extracted CD

Track | Start | Length | Start sector | End sector
---------------------------------------------------------
1 | 0:00.00 | 4:05.64 | 0 | 18438
2 | 4:05.64 | 4:36.42 | 18439 | 39180
3 | 8:42.31 | 3:48.40 | 39181 | 56320
4 | 12:30.71 | 4:18.50 | 56321 | 75720
5 | 16:49.46 | 4:08.74 | 75721 | 94394
6 | 20:58.45 | 4:10.49 | 94395 | 113193
7 | 25:09.19 | 4:36.62 | 113194 | 133955
8 | 29:46.06 | 3:53.02 | 133956 | 151432
9 | 33:39.08 | 3:47.36 | 151433 | 168493
10 | 37:26.44 | 3:04.46 | 168494 | 182339


Range status and errors

Selected range

Filename C:\mm\David Benoit\2008 - Jazz For Peanuts [PKD-30454]\David Benoit - Jazz For Peanuts.wav

Peak level 98.8 %
Extraction speed 11.9 X
Range quality 99.9 %
Test CRC AE36220C
Copy CRC AE36220C
Copy OK

No errors occurred


AccurateRip summary

Track 1 accurately ripped (confidence 2) [7D4A833E] (AR v1)
Track 2 accurately ripped (confidence 2) [DAE46585] (AR v1)
Track 3 accurately ripped (confidence 2) [7726DFCA] (AR v1)
Track 4 accurately ripped (confidence 2) [F8EAB9EB] (AR v1)
Track 5 accurately ripped (confidence 2) [CA5DB5B1] (AR v1)
Track 6 accurately ripped (confidence 2) [187F6BB8] (AR v1)
Track 7 accurately ripped (confidence 2) [610371DF] (AR v1)
Track 8 accurately ripped (confidence 2) [8767C77D] (AR v1)
Track 9 accurately ripped (confidence 2) [D8359B9E] (AR v1)
Track 10 accurately ripped (confidence 2) [C3A7BDCB] (AR v1)

All tracks accurately ripped

End of status report

---- CUETools DB Plugin V2.1.6

[CTDB TOCID: yrQ.JnlQ.XzIxRHdD_tljLEiPi0-] found
Submit result: yrQ.JnlQ.XzIxRHdD_tljLEiPi0- has been confirmed
Track | CTDB Status
1 | (36/36) Accurately ripped
2 | (36/36) Accurately ripped
3 | (36/36) Accurately ripped
4 | (36/36) Accurately ripped
5 | (36/36) Accurately ripped
6 | (36/36) Accurately ripped
7 | (36/36) Accurately ripped
8 | (36/36) Accurately ripped
9 | (36/36) Accurately ripped
10 | (36/36) Accurately ripped
[свернуть]

Файл CUE

REM GENRE Jazz
REM DATE 2008
REM DISCID 69097F0A
REM COMMENT "ExactAudioCopy v1.1"
PERFORMER "David Benoit"
TITLE "Jazz For Peanuts"
FILE "David Benoit - Jazz For Peanuts.flac" WAVE
TRACK 01 AUDIO
TITLE "You're In Love, Charlie Brown"
PERFORMER "David Benoit & Christian Scott"
INDEX 01 00:00:00
TRACK 02 AUDIO
TITLE "The Buggy Ride"
PERFORMER "David Benoit & Wynton Marsalis Septet"
INDEX 01 04:05:64
TRACK 03 AUDIO
TITLE "Benjamin"
PERFORMER "David Benoit & Dave Brubeck"
INDEX 01 08:42:31
TRACK 04 AUDIO
TITLE "The Great Pumpkin Waltz"
PERFORMER "David Benoit"
INDEX 01 12:30:71
TRACK 05 AUDIO
TITLE "Wild Kids"
PERFORMER "David Benoit & Taylor Eigsti"
INDEX 01 16:49:46
TRACK 06 AUDIO
TITLE "Breadline Blues"
PERFORMER "David Benoit & Kenny G"
INDEX 01 20:58:45
TRACK 07 AUDIO
TITLE "Be My Valentine"
PERFORMER "David Benoit"
INDEX 01 25:09:19
TRACK 08 AUDIO
TITLE "Rollerblading"
PERFORMER "David Benoit & Christian Scott"
INDEX 01 29:46:06
TRACK 09 AUDIO
TITLE "Re-Run's Theme"
PERFORMER "David Benoit"
INDEX 01 33:39:08
TRACK 10 AUDIO
TITLE "Linus And Lucy"
PERFORMER "David Benoit & Vince Guaraldi"
INDEX 01 37:26:44
[свернуть]

Лог проверки качества

AUDIOCHECKER v2.0 beta (build 457) - by Dester - [Ссылки могут видеть только зарегистрированные и активированные пользователи.]
[Only registered and activated users can see links.]
~~~~~~~~~~~~~~~~~~~~~~~~~~~~~~~~~~
-=== НЕ РЕДАКТИРУЙТЕ ЭТОТ ФАЙЛ! ===-

Путь: ...\2008 - Jazz For Peanuts [PKD-30454]

1 -=- David Benoit - Jazz For Peanuts.flac -=- CDDA (100%)

239998932
[свернуть]

Спектр частот

[свернуть]

Скачать David Benoit ‎– Jazz For Peanuts (A Retrospective Of The Charlie Brown TV Themes)

[Ссылки могут видеть только зарегистрированные и активированные пользователи.]
[Only registered and activated users can see links.]

password: sergych
[свернуть]
My opinion of release: 10/10
__________________
TAIFUN.Wings of Soul

Вверх
3 пользователя(ей) сказали cпасибо:
johnsilver (27.08.2017), swint68 (06.08.2016), TAIFUN (07.08.2016)
Похожие темы
Тема Автор Раздел Ответов Последнее сообщение
Альбом David Benoit & Russ Freeman - The Benoit / Freeman Project 2 sergych Jazz и Blues 0 10.05.2015 18:18
Альбом David Benoit & Russ Freeman - The Benoit / Freeman Project sergych Jazz и Blues 1 11.04.2014 18:05
Релиз You Can’t Win, Charlie Brown – Diffraction/Refraction PUPOKIN Indie Rock 0 23.01.2014 09:01
VA Talkin Jazz:Themes from the Black Forest PUPOKIN Jazz и Blues 0 24.10.2010 10:19


Метки
2008 , david benoit , jazz for peanuts (a retrospective of the charlie brown tv themes) , jazz fusion , smooth jazz

Опции темы

Ваши права в разделе
Вы не можете создавать новые темы
Вы не можете отвечать в темах
Вы не можете прикреплять вложения
Вы не можете редактировать свои сообщения

Быстрый переход



Текущее время: 09:18. Часовой пояс GMT +3.
Powered by vBulletin® Version 3.8.10
Copyright ©2000 - 2019, vBulletin Solutions, Inc. Перевод: zCarot
© 2008 - 2019 Taifun With Song
Яндекс.Метрика