TAIFUN With Song - качественная и редкая музыка
Навигация
Jazz и Blues Гибкая ритмика, импровизационное начало, гармонии и мелодии - все это Jazz. Blues - жизнеутверждающая музыка, рожденная из душевной боли

А знаете ли Вы, что...
Почему песня «А может быть ворона» из советского мультфильма была записана в ускоренном темпе?
«Песня «А может быть ворона» изначально должна была звучать в мультфильме «Пластилиновая ворона» в обычном темпе. Однако режиссёр Александр Татарский не проследил за временем записи, из-за чего песня не уложилась в отведённые 5 минут анимации. Решение было найдено простое — песню ускорили, в результате чего она приобрела своё знаменитое «мультяшное» звучание.»
 
Опции темы

  #1
Старый 10.05.2015, 18:18
sergych
Координатор
Досье
 
Аватар для sergych
Релиз David Benoit & Russ Freeman - The Benoit / Freeman Project 2


2004 - David Benoit & Russ Freeman - The Benoit / Freeman Project 2




Исполнитель/Artist: David Benoit & Russ Freeman
Альбом/Album: The Benoit / Freeman Project 2
Год/Year: 2004
Жанр/Genre: Smooth jazz, Jazz fusion
Страна/Country: Соединённые Штаты
Рекорд-лейбл/Record label: Peak Records
Номер в каталоге/Catalogue #: PKD-8525-2
Формат/Format: Free Lossless Audio Codec (*.flac)
Качество/Quality: Lossless
Тип рипа/RIP Type: image+.cue
Продолжительность/Length: 00:46:41
Источник/Source: Собственный рип
Размер/Size: 333.6 MB

Сканы в комплекте

Треклист

01. Palmetto Park [0:04:01.16]
02. Via Nueve [0:05:17.06]
03. Montecito [0:04:39.67]
04. Club Havana [0:05:37.12]
05. Two Survivors [0:05:03.64]
06. Samba [0:04:48.30]
07. Moon Through The Window [0:04:47.13]
08. Struttin' [0:04:41.60]
09. Stiletto Heels [0:04:12.09]
10. Waiting For The Stars To Fall [0:03:32.07]
[свернуть]

youtube.com

[свернуть]

Исполнители/Performers

David Benoit - piano
Russ Freeman - guitar, synthesizer
Chris Botti - trumpet
Luis Conte, Vinnie Colaiuta - percussion
David Pack, Vince Gill - vocals
Byron House, Dave Carpenter - bass
[свернуть]

EAC лог

Exact Audio Copy V1.0 beta 3 from 29. August 2011

EAC extraction logfile from 9. May 2015, 21:32

David Benoit, Russ Freeman / The Benoit-Freeman Project 2

Used drive : ATAPI iHAS124 D Adapter: 0 ID: 2

Read mode : Secure
Utilize accurate stream : Yes
Defeat audio cache : Yes
Make use of C2 pointers : No

Read offset correction : 6
Overread into Lead-In and Lead-Out : No
Fill up missing offset samples with silence : Yes
Delete leading and trailing silent blocks : No
Null samples used in CRC calculations : Yes
Used interface : Installed external ASPI interface

Used output format : User Defined Encoder
Selected bitrate : 1024 kBit/s
Quality : High
Add ID3 tag : No
Command line compressor : C:\Program Files (x86)\Exact Audio Copy\Flac\flac.exe
Additional command line options : -6 -V -T "ARTIST=%artist%" -T "TITLE=%title%" -T "ALBUM=%albumtitle%" -T "DATE=%year%" -T "TRACKNUMBER=%tracknr%" -T "GENRE=%genre%" -T "COMMENT=%comment%" -T "BAND=%albuminterpret%" -T "COMPOSER=%composer%" %haslyrics%--tag-from-file=LYRICS="%lyricsfile%"%haslyrics% -T "DISCNUMBER=%cdnumber%" -T "TOTALDISCS=%totalcds%" -T "TOTALTRACKS=%numtracks%" %hascover%--picture="%coverfile%"%hascover% %source% -o %dest%


TOC of the extracted CD

Track | Start | Length | Start sector | End sector
---------------------------------------------------------
1 | 0:00.00 | 4:01.16 | 0 | 18090
2 | 4:01.16 | 5:17.06 | 18091 | 41871
3 | 9:18.22 | 4:39.67 | 41872 | 62863
4 | 13:58.14 | 5:37.12 | 62864 | 88150
5 | 19:35.26 | 5:03.64 | 88151 | 110939
6 | 24:39.15 | 4:48.30 | 110940 | 132569
7 | 29:27.45 | 4:47.13 | 132570 | 154107
8 | 34:14.58 | 4:41.60 | 154108 | 175242
9 | 38:56.43 | 4:12.09 | 175243 | 194151
10 | 43:08.52 | 3:32.07 | 194152 | 210058


Range status and errors

Selected range

Filename C:\mm\Russ Freeman\David Benoit & Russ Freeman - 2004 - The Benoit_Freeman Project 2 [PKD-8525-2]\David Benoit, Russ Freeman - The Benoit-Freeman Project 2.wav

Peak level 96.8 %
Extraction speed 8.4 X
Range quality 99.9 %
Test CRC 4B72B892
Copy CRC 4B72B892
Copy OK

No errors occurred


AccurateRip summary

Track 1 accurately ripped (confidence 18) [1DD0E08E] (AR v2)
Track 2 accurately ripped (confidence 18) [647151E3] (AR v2)
Track 3 accurately ripped (confidence 18) [54FC1A2A] (AR v2)
Track 4 accurately ripped (confidence 18) [864FE9BF] (AR v2)
Track 5 accurately ripped (confidence 18) [6114D3FD] (AR v2)
Track 6 accurately ripped (confidence 19) [850AE8DE] (AR v2)
Track 7 accurately ripped (confidence 18) [6655DC5D] (AR v2)
Track 8 accurately ripped (confidence 18) [1C40C5FB] (AR v2)
Track 9 accurately ripped (confidence 18) [EF11D986] (AR v2)
Track 10 accurately ripped (confidence 18) [F0386E6B] (AR v2)

All tracks accurately ripped

End of status report
[свернуть]

Файл CUE

REM GENRE Jazz
REM DATE 2004
REM DISCID 840AF00A
REM COMMENT "ExactAudioCopy v1.0b3"
PERFORMER "David Benoit, Russ Freeman"
TITLE "The Benoit-Freeman Project 2"
FILE "David Benoit, Russ Freeman - The Benoit-Freeman Project 2.flac" WAVE
TRACK 01 AUDIO
TITLE "Palmetto Park"
PERFORMER "David Benoit, Russ Freeman"
FLAGS DCP
INDEX 01 00:00:00
TRACK 02 AUDIO
TITLE "Via Nueve"
PERFORMER "David Benoit, Russ Freeman"
FLAGS DCP
INDEX 00 04:00:64
INDEX 01 04:01:16
TRACK 03 AUDIO
TITLE "Montecito"
PERFORMER "David Benoit, Russ Freeman"
FLAGS DCP
INDEX 00 09:18:06
INDEX 01 09:18:22
TRACK 04 AUDIO
TITLE "Club Havana"
PERFORMER "David Benoit, Russ Freeman"
FLAGS DCP
INDEX 00 13:57:69
INDEX 01 13:58:14
TRACK 05 AUDIO
TITLE "Two Survivors"
PERFORMER "David Benoit, Russ Freeman"
FLAGS DCP
INDEX 00 19:35:03
INDEX 01 19:35:26
TRACK 06 AUDIO
TITLE "Samba"
PERFORMER "David Benoit, Russ Freeman"
FLAGS DCP
INDEX 00 24:38:56
INDEX 01 24:39:15
TRACK 07 AUDIO
TITLE "Moon Through The Window"
PERFORMER "David Benoit, Russ Freeman"
FLAGS DCP
INDEX 00 29:26:65
INDEX 01 29:27:45
TRACK 08 AUDIO
TITLE "Struttin'"
PERFORMER "David Benoit, Russ Freeman"
FLAGS DCP
INDEX 00 34:14:18
INDEX 01 34:14:58
TRACK 09 AUDIO
TITLE "Stiletto Heels"
PERFORMER "David Benoit, Russ Freeman"
FLAGS DCP
INDEX 00 38:56:09
INDEX 01 38:56:43
TRACK 10 AUDIO
TITLE "Waiting For The Stars To Fall"
PERFORMER "David Benoit, Russ Freeman"
FLAGS DCP
INDEX 00 43:08:15
INDEX 01 43:08:52
[свернуть]

Лог проверки качества

AUDIOCHECKER v2.0 beta (build 457) - by Dester - [Ссылки могут видеть только зарегистрированные и активированные пользователи.]
[Only registered and activated users can see links.]
~~~~~~~~~~~~~~~~~~~~~~~~~~~~~~~~~~
-=== НЕ РЕДАКТИРУЙТЕ ЭТОТ ФАЙЛ! ===-

Путь: ...\David Benoit & Russ Freeman - 2004 - The Benoit_Freeman Project 2 [PKD-8525-2]

1 -=- David Benoit, Russ Freeman - The Benoit-Freeman Project 2.flac -=- CDDA (100%)

54740724
[свернуть]

Спектр частот

[свернуть]

Скачать David Benoit & Russ Freeman - The Benoit / Freeman Project 2

[Ссылки могут видеть только зарегистрированные и активированные пользователи.]
[Only registered and activated users can see links.]

password: sergych
[свернуть]
My opinion of release: 10/10

Release info RInfo

Ещё одна совместная работа американского пианиста David Benoit и американского гитариста, фронтмена группы The Rippingtons, Russ Freeman, поднявшаяся на 7-е место в Billboard's Jazz chart
__________________
TAIFUN.Wings of Soul

Вверх
Пользователь сказал cпасибо:
johnsilver (27.08.2017)
Похожие темы
Тема Автор Раздел Ответов Последнее сообщение
Альбом Russ Conway - Party Time sergych Instrumental 0 12.04.2015 23:11
Альбом David Benoit & Russ Freeman - The Benoit / Freeman Project sergych Jazz и Blues 1 11.04.2014 18:05
Релиз Tab Benoit - Medicine PUPOKIN Jazz и Blues 0 28.04.2011 10:50


Метки
2004 , david benoit & russ freeman , jazz fusion , smooth jazz , the benoit / freeman project 2

Опции темы

Ваши права в разделе
Вы не можете создавать новые темы
Вы не можете отвечать в темах
Вы не можете прикреплять вложения
Вы не можете редактировать свои сообщения

Быстрый переход



Текущее время: 09:19. Часовой пояс GMT +3.
Powered by vBulletin® Version 3.8.10
Copyright ©2000 - 2019, vBulletin Solutions, Inc. Перевод: zCarot
© 2008 - 2019 Taifun With Song
Яндекс.Метрика