TAIFUN With Song - качественная и редкая музыка
Навигация
А знаете ли Вы, что...
Какое совпадение связало смерти солиста Boney M и Григория Распутина?
«Бобби Фаррелл, единственный мужчина в диско-группе Boney M, во время исполнения одного из главных хитов группы «Rasputin» часто гримировался в образ Распутина. Фаррелл умер от остановки сердца во время гастролей в Санкт-Петербурге 30 декабря 2010 года — того же числа и в том же городе, что и сам Распутин.»
 
Опции темы

  #1
Старый 09.01.2015, 12:17
sergych
Координатор
Досье
 
Аватар для sergych
Релиз Des'ree - I Ain't Movin'


1994 - Des'ree - I Ain't Movin'




Исполнитель/Artist: Des'ree
Альбом/Album: I Ain't Movin'
Год/Year: 1994
Жанр/Genre: R&B, soul, pop
Страна/Country: Соединённые Штаты
Рекорд-лейбл/Record label: 550 Music / Epic
Номер в каталоге/Catalogue #: BK 64324
Формат/Format: Free Lossless Audio Codec (*.flac)
Качество/Quality: Lossless
Тип рипа/RIP Type: image+.cue
Продолжительность/Length: 00:52:09
Источник/Source: Собственный рип
Размер/Size: 361.2 MB

Сканы в комплекте

Треклист

01. You Gotta Be [0:04:06.60]
02. Crazy Maze [0:04:36.37]
03. Feel So High [0:03:53.45]
04. Little Child [0:03:54.18]
05. Strong Enough [0:04:42.27]
06. Herald The Day [0:05:18.48]
07. Trip On Love [0:04:28.62]
08. I Ain't Movin' [0:04:21.63]
09. Living In the City [0:04:31.22]
10. In My Dreams [0:04:14.50]
11. Love Is Here [0:04:50.23]
12. I Ain't Movin' (Percussion Reprise) [0:03:10.27]
[свернуть]

youtube.com

[свернуть]

Исполнители/Performers

Drums: Rocky Bryant, Ashley Ingram, V. Jeffrey Smith
Percussion: Norman Hedman, V. Jeffrey Smith
Bass: Ashley Ingram, Tracy Wormworth
Guitars: Ashley Ingram, Peter Lord Moreland, Prince Sampson, V. Jeffrey Smith, Tom "T-Bone" Wolk
Keyboards: Ashley Ingram, Peter Lord Moreland, V. Jeffrey Smith
Backing vocals: Des'ree, Ashley Ingram, Michael Sinclair
[свернуть]

EAC лог

Exact Audio Copy V1.0 beta 3 from 29. August 2011

EAC extraction logfile from 9. January 2015, 0:24

Des'ree / I Ain't Movin'

Used drive : ATAPI iHAS124 D Adapter: 0 ID: 2

Read mode : Secure
Utilize accurate stream : Yes
Defeat audio cache : Yes
Make use of C2 pointers : No

Read offset correction : 6
Overread into Lead-In and Lead-Out : No
Fill up missing offset samples with silence : Yes
Delete leading and trailing silent blocks : No
Null samples used in CRC calculations : Yes
Used interface : Installed external ASPI interface

Used output format : User Defined Encoder
Selected bitrate : 1024 kBit/s
Quality : High
Add ID3 tag : No
Command line compressor : C:\Program Files (x86)\Exact Audio Copy\Flac\flac.exe
Additional command line options : -6 -V -T "ARTIST=%artist%" -T "TITLE=%title%" -T "ALBUM=%albumtitle%" -T "DATE=%year%" -T "TRACKNUMBER=%tracknr%" -T "GENRE=%genre%" -T "COMMENT=%comment%" -T "BAND=%albuminterpret%" -T "COMPOSER=%composer%" %haslyrics%--tag-from-file=LYRICS="%lyricsfile%"%haslyrics% -T "DISCNUMBER=%cdnumber%" -T "TOTALDISCS=%totalcds%" -T "TOTALTRACKS=%numtracks%" %hascover%--picture="%coverfile%"%hascover% %source% -o %dest%


TOC of the extracted CD

Track | Start | Length | Start sector | End sector
---------------------------------------------------------
1 | 0:00.00 | 4:06.60 | 0 | 18509
2 | 4:06.60 | 4:36.37 | 18510 | 39246
3 | 8:43.22 | 3:53.45 | 39247 | 56766
4 | 12:36.67 | 3:54.18 | 56767 | 74334
5 | 16:31.10 | 4:42.27 | 74335 | 95511
6 | 21:13.37 | 5:18.48 | 95512 | 119409
7 | 26:32.10 | 4:28.62 | 119410 | 139571
8 | 31:00.72 | 4:21.63 | 139572 | 159209
9 | 35:22.60 | 4:31.22 | 159210 | 179556
10 | 39:54.07 | 4:14.50 | 179557 | 198656
11 | 44:08.57 | 4:50.23 | 198657 | 220429
12 | 48:59.05 | 3:10.27 | 220430 | 234706


Range status and errors

Selected range

Filename C:\mm\Des'ree\1994 - I Ain't Movin' [BK 64324]\Des'ree - I Ain't Movin'.wav

Peak level 95.5 %
Extraction speed 8.6 X
Range quality 99.9 %
Test CRC A45A2468
Copy CRC A45A2468
Copy OK

No errors occurred


AccurateRip summary

Track 1 accurately ripped (confidence 4) [50DE6302] (AR v2)
Track 2 accurately ripped (confidence 4) [0DAA2E4E] (AR v2)
Track 3 accurately ripped (confidence 4) [B4883290] (AR v2)
Track 4 accurately ripped (confidence 4) [7D8E625A] (AR v2)
Track 5 accurately ripped (confidence 4) [E029A405] (AR v2)
Track 6 accurately ripped (confidence 4) [AF31CD10] (AR v2)
Track 7 accurately ripped (confidence 4) [DF4DE70C] (AR v2)
Track 8 accurately ripped (confidence 4) [428FEF46] (AR v2)
Track 9 accurately ripped (confidence 4) [2629999C] (AR v2)
Track 10 accurately ripped (confidence 4) [1CD8F576] (AR v2)
Track 11 accurately ripped (confidence 4) [E46A984E] (AR v2)
Track 12 accurately ripped (confidence 4) [9279561D] (AR v2)

All tracks accurately ripped

End of status report
[свернуть]

Файл CUE

REM GENRE Soul
REM DATE 1994
REM DISCID B20C390C
REM COMMENT "ExactAudioCopy v1.0b3"
PERFORMER "Des'ree"
TITLE "I Ain't Movin'"
FILE "Des'ree - I Ain't Movin'.flac" WAVE
TRACK 01 AUDIO
TITLE "You Gotta Be"
PERFORMER "Des'ree"
INDEX 01 00:00:00
TRACK 02 AUDIO
TITLE "Crazy Maze"
PERFORMER "Des'ree"
INDEX 00 04:05:74
INDEX 01 04:06:60
TRACK 03 AUDIO
TITLE "Feel So High"
PERFORMER "Des'ree"
INDEX 00 08:42:44
INDEX 01 08:43:22
TRACK 04 AUDIO
TITLE "Little Child"
PERFORMER "Des'ree"
INDEX 01 12:36:67
TRACK 05 AUDIO
TITLE "Strong Enough"
PERFORMER "Des'ree"
INDEX 00 16:30:08
INDEX 01 16:31:10
TRACK 06 AUDIO
TITLE "Herald The Day"
PERFORMER "Des'ree"
INDEX 00 21:13:36
INDEX 01 21:13:37
TRACK 07 AUDIO
TITLE "Trip On Love"
PERFORMER "Des'ree"
INDEX 00 26:31:40
INDEX 01 26:32:10
TRACK 08 AUDIO
TITLE "I Ain't Movin'"
PERFORMER "Des'ree"
INDEX 00 31:00:67
INDEX 01 31:00:72
TRACK 09 AUDIO
TITLE "Living In the City"
PERFORMER "Des'ree"
INDEX 00 35:21:69
INDEX 01 35:22:60
TRACK 10 AUDIO
TITLE "In My Dreams"
PERFORMER "Des'ree"
INDEX 00 39:54:04
INDEX 01 39:54:07
TRACK 11 AUDIO
TITLE "Love Is Here"
PERFORMER "Des'ree"
INDEX 00 44:07:53
INDEX 01 44:08:57
TRACK 12 AUDIO
TITLE "I Ain't Movin' (Percussion Reprise)"
PERFORMER "Des'ree"
INDEX 00 48:57:73
INDEX 01 48:59:05
[свернуть]

Лог проверки качества

AUDIOCHECKER v2.0 beta (build 457) - by Dester - [Ссылки могут видеть только зарегистрированные и активированные пользователи.]
[Only registered and activated users can see links.]
~~~~~~~~~~~~~~~~~~~~~~~~~~~~~~~~~~
-=== НЕ РЕДАКТИРУЙТЕ ЭТОТ ФАЙЛ! ===-

Путь: ...\1994 - I Ain't Movin' [BK 64324]

1 -=- Des'ree - I Ain't Movin'.flac -=- CDDA (100%)

170046180
[свернуть]

Спектр частот

[свернуть]

Скачать Des'ree - I Ain't Movin'

[Ссылки могут видеть только зарегистрированные и активированные пользователи.]
[Only registered and activated users can see links.]

password: sergych
[свернуть]
My opinion of release: 9/10
__________________
TAIFUN.Wings of Soul

Вверх
Пользователь сказал cпасибо:
Ruibarbo (18.11.2018)

Метки
1994 , des'ree , i ain't movin' , pop , r&b , soul

Опции темы

Ваши права в разделе
Вы не можете создавать новые темы
Вы не можете отвечать в темах
Вы не можете прикреплять вложения
Вы не можете редактировать свои сообщения

Быстрый переход



Текущее время: 09:18. Часовой пояс GMT +3.
Powered by vBulletin® Version 3.8.10
Copyright ©2000 - 2019, vBulletin Solutions, Inc. Перевод: zCarot
© 2008 - 2019 Taifun With Song
Яндекс.Метрика