TAIFUN With Song - качественная и редкая музыка
Навигация
Jazz и Blues Гибкая ритмика, импровизационное начало, гармонии и мелодии - все это Jazz. Blues - жизнеутверждающая музыка, рожденная из душевной боли

А знаете ли Вы, что...
Почему обложку музыкального сборника
«В 2005 году Sony BMG выпустила музыкальный сборник ‘Electric 80s’. В оформлении обложки диска был использован большой штрих-код. Некоторые супермаркеты потерпели убытки после того, как их продавцы считывали сканерами именно этот штрих-код вместо обычного, располагающегося на обратной стороне диска. Сканеры распознавали по коду другой товар, который стоил дешевле. Во второй партии дисков обложка была изменена.»
 
Опции темы

  #1
Старый 09.10.2013, 19:10
sergych
Координатор
Досье
 
Аватар для sergych
Релиз David Benoit & Russ Freeman - The Benoit / Freeman Project


1994 - David Benoit & Russ Freeman - The Benoit / Freeman Project




Исполнитель/Artist: David Benoit & Russ Freeman
Альбом/Album: The Benoit / Freeman Project
Год/Year: 1994
Жанр/Genre: smooth jazz, jazz fusion
Страна/Country: EU
Рекорд-лейбл/Record label: GRP Records
Номер в каталоге/Catalogue #: GRD 97392 / 0 11105-9739-2 2
Формат/Format: Free Lossless Audio Codec (*.flac)
Качество/Quality: Lossless
Тип рипа/RIP Type: tracks+.cue
Продолжительность/Length: 00:51:59
Источник/Source: Собственный рип
Размер/Size: 373.8 MB

Сканы в комплекте

Треклист

01 - Reunion
02 - When She Believed in Me
03 - Mediterranean Nights
04 - Swept Away
05 - The End of Our Season
06 - After the Love Has Gone
07 - Smartypants
08 - It's the Thought That Counts
09 - Mirage
10 - That's All I Could Say
[свернуть]

youtube.com

[свернуть]

EAC лог

Exact Audio Copy V1.0 beta 3 from 29. August 2011

EAC extraction logfile from 9. October 2013, 20:03

David Benoit & Russ Freeman / The Benoit/Freeman Project

Used drive : ATAPI iHAS124 D Adapter: 0 ID: 2

Read mode : Secure
Utilize accurate stream : Yes
Defeat audio cache : Yes
Make use of C2 pointers : No

Read offset correction : 6
Overread into Lead-In and Lead-Out : No
Fill up missing offset samples with silence : Yes
Delete leading and trailing silent blocks : No
Null samples used in CRC calculations : Yes
Used interface : Installed external ASPI interface
Gap handling : Appended to previous track

Used output format : User Defined Encoder
Selected bitrate : 1024 kBit/s
Quality : High
Add ID3 tag : No
Command line compressor : C:\Program Files (x86)\Exact Audio Copy\Flac\flac.exe
Additional command line options : -6 -V -T "ARTIST=%artist%" -T "TITLE=%title%" -T "ALBUM=%albumtitle%" -T "DATE=%year%" -T "TRACKNUMBER=%tracknr%" -T "GENRE=%genre%" -T "COMMENT=%comment%" -T "BAND=%albuminterpret%" -T "COMPOSER=%composer%" %haslyrics%--tag-from-file=LYRICS="%lyricsfile%"%haslyrics% -T "DISCNUMBER=%cdnumber%" -T "TOTALDISCS=%totalcds%" -T "TOTALTRACKS=%numtracks%" %hascover%--picture="%coverfile%"%hascover% %source% -o %dest%


TOC of the extracted CD

Track | Start | Length | Start sector | End sector
---------------------------------------------------------
1 | 0:00.33 | 5:06.62 | 33 | 23044
2 | 5:07.20 | 5:25.70 | 23045 | 47489
3 | 10:33.15 | 6:57.30 | 47490 | 78794
4 | 17:30.45 | 4:57.00 | 78795 | 101069
5 | 22:27.45 | 4:18.35 | 101070 | 120454
6 | 26:46.05 | 4:19.55 | 120455 | 139934
7 | 31:05.60 | 5:43.13 | 139935 | 165672
8 | 36:48.73 | 6:04.20 | 165673 | 192992
9 | 42:53.18 | 6:00.45 | 192993 | 220037
10 | 48:53.63 | 3:16.72 | 220038 | 234809


Track 1

Filename C:\mm\Russ Freeman\David Benoit & Russ Freeman - 1994 - The Benoit Freeman Project\01 - Reunion.wav

Pre-gap length 0:00:02.33

Peak level 99.8 %
Extraction speed 6.2 X
Track quality 100.0 %
Test CRC E47B440B
Copy CRC E47B440B
Accurately ripped (confidence 8) [F2C62CA5] (AR v2)
Copy OK

Track 2

Filename C:\mm\Russ Freeman\David Benoit & Russ Freeman - 1994 - The Benoit Freeman Project\02 - When She Believed in Me.wav

Peak level 99.8 %
Extraction speed 7.0 X
Track quality 100.0 %
Test CRC 33DEDEB4
Copy CRC 33DEDEB4
Accurately ripped (confidence 8) [545B0FAA] (AR v2)
Copy OK

Track 3

Filename C:\mm\Russ Freeman\David Benoit & Russ Freeman - 1994 - The Benoit Freeman Project\03 - Mediterranean Nights.wav

Pre-gap length 0:00:00.42

Peak level 99.8 %
Extraction speed 7.9 X
Track quality 100.0 %
Test CRC B655AF6C
Copy CRC B655AF6C
Accurately ripped (confidence 8) [038010BD] (AR v2)
Copy OK

Track 4

Filename C:\mm\Russ Freeman\David Benoit & Russ Freeman - 1994 - The Benoit Freeman Project\04 - Swept Away.wav

Pre-gap length 0:00:00.60

Peak level 99.8 %
Extraction speed 8.3 X
Track quality 100.0 %
Test CRC 81874EB8
Copy CRC 81874EB8
Accurately ripped (confidence 8) [36665AA7] (AR v2)
Copy OK

Track 5

Filename C:\mm\Russ Freeman\David Benoit & Russ Freeman - 1994 - The Benoit Freeman Project\05 - The End of Our Season.wav

Pre-gap length 0:00:01.60

Peak level 99.8 %
Extraction speed 8.6 X
Track quality 100.0 %
Test CRC 464769CF
Copy CRC 464769CF
Accurately ripped (confidence 8) [B61B5CEF] (AR v2)
Copy OK

Track 6

Filename C:\mm\Russ Freeman\David Benoit & Russ Freeman - 1994 - The Benoit Freeman Project\06 - After the Love Has Gone.wav

Pre-gap length 0:00:01.60

Peak level 99.8 %
Extraction speed 9.0 X
Track quality 100.0 %
Test CRC 48AFE369
Copy CRC 48AFE369
Accurately ripped (confidence 8) [F9101AE5] (AR v2)
Copy OK

Track 7

Filename C:\mm\Russ Freeman\David Benoit & Russ Freeman - 1994 - The Benoit Freeman Project\07 - Smartypants.wav

Pre-gap length 0:00:01.27

Peak level 99.8 %
Extraction speed 9.8 X
Track quality 100.0 %
Test CRC F75D5FC0
Copy CRC F75D5FC0
Accurately ripped (confidence 8) [53FE07DD] (AR v2)
Copy OK

Track 8

Filename C:\mm\Russ Freeman\David Benoit & Russ Freeman - 1994 - The Benoit Freeman Project\08 - It's the Thought That Counts.wav

Pre-gap length 0:00:01.35

Peak level 99.8 %
Extraction speed 10.4 X
Track quality 100.0 %
Test CRC 55AA6F7F
Copy CRC 55AA6F7F
Accurately ripped (confidence 8) [C6227972] (AR v2)
Copy OK

Track 9

Filename C:\mm\Russ Freeman\David Benoit & Russ Freeman - 1994 - The Benoit Freeman Project\09 - Mirage.wav

Pre-gap length 0:00:01.48

Peak level 99.8 %
Extraction speed 10.8 X
Track quality 100.0 %
Test CRC 2A3A03AB
Copy CRC 2A3A03AB
Accurately ripped (confidence 8) [DAFEA953] (AR v2)
Copy OK

Track 10

Filename C:\mm\Russ Freeman\David Benoit & Russ Freeman - 1994 - The Benoit Freeman Project\10 - That's All I Could Say.wav

Pre-gap length 0:00:01.30

Peak level 92.3 %
Extraction speed 10.3 X
Track quality 100.0 %
Test CRC B340C9C6
Copy CRC B340C9C6
Accurately ripped (confidence 8) [484E4690] (AR v2)
Copy OK


All tracks accurately ripped

No errors occurred

End of status report
[свернуть]

Файл CUE

REM GENRE "Smooth Jazz"
REM DATE 1994
REM DISCID 850C3A0A
REM COMMENT "ExactAudioCopy v1.0b3"
PERFORMER "David Benoit & Russ Freeman"
TITLE "The Benoit/Freeman Project"
FILE "01 - Reunion.wav" WAVE
TRACK 01 AUDIO
TITLE "Reunion"
PERFORMER "David Benoit & Russ Freeman"
PREGAP 00:00:33
INDEX 01 00:00:00
FILE "02 - When She Believed in Me.wav" WAVE
TRACK 02 AUDIO
TITLE "When She Believed in Me"
PERFORMER "David Benoit & Russ Freeman"
INDEX 01 00:00:00
TRACK 03 AUDIO
TITLE "Mediterranean Nights"
PERFORMER "David Benoit & Russ Freeman"
INDEX 00 05:25:28
FILE "03 - Mediterranean Nights.wav" WAVE
INDEX 01 00:00:00
TRACK 04 AUDIO
TITLE "Swept Away"
PERFORMER "David Benoit & Russ Freeman"
INDEX 00 06:56:45
FILE "04 - Swept Away.wav" WAVE
INDEX 01 00:00:00
TRACK 05 AUDIO
TITLE "The End of Our Season"
PERFORMER "David Benoit & Russ Freeman"
INDEX 00 04:55:15
FILE "05 - The End of Our Season.wav" WAVE
INDEX 01 00:00:00
TRACK 06 AUDIO
TITLE "After the Love Has Gone"
PERFORMER "David Benoit & Russ Freeman"
INDEX 00 04:16:50
FILE "06 - After the Love Has Gone.wav" WAVE
INDEX 01 00:00:00
TRACK 07 AUDIO
TITLE "Smartypants"
PERFORMER "David Benoit & Russ Freeman"
INDEX 00 04:18:28
FILE "07 - Smartypants.wav" WAVE
INDEX 01 00:00:00
TRACK 08 AUDIO
TITLE "It's the Thought That Counts"
PERFORMER "David Benoit & Russ Freeman"
INDEX 00 05:41:53
FILE "08 - It's the Thought That Counts.wav" WAVE
INDEX 01 00:00:00
TRACK 09 AUDIO
TITLE "Mirage"
PERFORMER "David Benoit & Russ Freeman"
INDEX 00 06:02:47
FILE "09 - Mirage.wav" WAVE
INDEX 01 00:00:00
TRACK 10 AUDIO
TITLE "That's All I Could Say"
PERFORMER "David Benoit & Russ Freeman"
INDEX 00 05:59:15
FILE "10 - That's All I Could Say.wav" WAVE
INDEX 01 00:00:00
[свернуть]

Лог проверки качества

AUDIOCHECKER v2.0 beta (build 457) - by Dester - [Ссылки могут видеть только зарегистрированные и активированные пользователи.]
[Only registered and activated users can see links.]
~~~~~~~~~~~~~~~~~~~~~~~~~~~~~~~~~~
-=== НЕ РЕДАКТИРУЙТЕ ЭТОТ ФАЙЛ! ===-

Путь: ...\David Benoit & Russ Freeman - 1994 - The Benoit Freeman Project

01 -=- 01 - Reunion.flac -=- CDDA (100%)
02 -=- 02 - When She Believed in Me.flac -=- CDDA (100%)
03 -=- 03 - Mediterranean Nights.flac -=- CDDA (99%)
04 -=- 04 - Swept Away.flac -=- CDDA (100%)
05 -=- 05 - The End of Our Season.flac -=- CDDA (100%)
06 -=- 06 - After the Love Has Gone.flac -=- CDDA (100%)
07 -=- 07 - Smartypants.flac -=- CDDA (100%)
08 -=- 08 - It's the Thought That Counts.flac -=- CDDA (100%)
09 -=- 09 - Mirage.flac -=- CDDA (100%)
10 -=- 10 - That's All I Could Say.flac -=- CDDA (100%)

Сводка 99,90% CDDA

118592356
[свернуть]

Скачать David Benoit & Russ Freeman - The Benoit / Freeman Project

[Ссылки могут видеть только зарегистрированные и активированные пользователи.]
[Only registered and activated users can see links.]

password: sergych
[свернуть]
My opinion of release: 10/10
__________________
TAIFUN.Wings of Soul


Последний раз редактировалось sergych, 11.04.2014 в 17:51. Причина: перезаливка
Вверх
Пользователь сказал cпасибо:
TAIFUN (09.10.2013)
  #2
Старый 11.04.2014, 18:05
sergych
Координатор
Досье
 
Аватар для sergych
По умолчанию Re: David Benoit & Russ Freeman - The Benoit / Freeman Project


1994 - David Benoit & Russ Freeman - The Benoit / Freeman Project




Исполнитель/Artist: David Benoit & Russ Freeman
Альбом/Album: The Benoit / Freeman Project
Год/Year: 1994
Жанр/Genre: smooth jazz, jazz fusion
Страна/Country: Соединённые Штаты
Рекорд-лейбл/Record label: GRP Records
Номер в каталоге/Catalogue #: GRD-9739
Формат/Format: Free Lossless Audio Codec (*.flac)
Качество/Quality: Lossless
Тип рипа/RIP Type: image+.cue
Продолжительность/Length: 00:52:09
Источник/Source: Собственный рип
Размер/Size: 360.2 MB

Сканы в комплекте

Треклист

01. Reunion [0:05:06.12]
02. When She Believed in Me [0:05:25.70]
03. Mediterranean Nights [0:06:57.30]
04. Swept Away [0:04:57.00]
05. The End of Our Season [0:04:18.35]
06. After the Love Has Gone [0:04:19.55]
07. Smartypants [0:05:43.13]
08. It's the Thought That Counts [0:06:04.20]
09. Mirage [0:06:00.42]
10. That's All I Could Say [0:03:16.63]
[свернуть]

youtube.com

[свернуть]

EAC лог

Exact Audio Copy V1.0 beta 3 from 29. August 2011

EAC extraction logfile from 11. April 2014, 1:32

David Benoit & Russ Freeman / The Benoit / Freeman Project

Used drive : ATAPI iHAS124 D Adapter: 0 ID: 2

Read mode : Secure
Utilize accurate stream : Yes
Defeat audio cache : Yes
Make use of C2 pointers : No

Read offset correction : 6
Overread into Lead-In and Lead-Out : No
Fill up missing offset samples with silence : Yes
Delete leading and trailing silent blocks : No
Null samples used in CRC calculations : Yes
Used interface : Installed external ASPI interface

Used output format : User Defined Encoder
Selected bitrate : 1024 kBit/s
Quality : High
Add ID3 tag : No
Command line compressor : C:\Program Files (x86)\Exact Audio Copy\Flac\flac.exe
Additional command line options : -6 -V -T "ARTIST=%artist%" -T "TITLE=%title%" -T "ALBUM=%albumtitle%" -T "DATE=%year%" -T "TRACKNUMBER=%tracknr%" -T "GENRE=%genre%" -T "COMMENT=%comment%" -T "BAND=%albuminterpret%" -T "COMPOSER=%composer%" %haslyrics%--tag-from-file=LYRICS="%lyricsfile%"%haslyrics% -T "DISCNUMBER=%cdnumber%" -T "TOTALDISCS=%totalcds%" -T "TOTALTRACKS=%numtracks%" %hascover%--picture="%coverfile%"%hascover% %source% -o %dest%


TOC of the extracted CD

Track | Start | Length | Start sector | End sector
---------------------------------------------------------
1 | 0:00.00 | 5:06.12 | 0 | 22961
2 | 5:06.12 | 5:25.70 | 22962 | 47406
3 | 10:32.07 | 6:57.30 | 47407 | 78711
4 | 17:29.37 | 4:57.00 | 78712 | 100986
5 | 22:26.37 | 4:18.35 | 100987 | 120371
6 | 26:44.72 | 4:19.55 | 120372 | 139851
7 | 31:04.52 | 5:43.13 | 139852 | 165589
8 | 36:47.65 | 6:04.20 | 165590 | 192909
9 | 42:52.10 | 6:00.42 | 192910 | 219951
10 | 48:52.52 | 3:16.63 | 219952 | 234714


Range status and errors

Selected range

Filename C:\mm\Russ Freeman\David Benoit & Russ Freeman - 1994 - The Benoit _ Freeman Project [GRD-9739]\David Benoit & Russ Freeman - The Benoit , Freeman Project.wav

Peak level 99.8 %
Extraction speed 8.9 X
Range quality 100.0 %
Test CRC C9DB038E
Copy CRC C9DB038E
Copy OK

No errors occurred


AccurateRip summary

Track 1 accurately ripped (confidence 19) [2C9A3E08] (AR v2)
Track 2 accurately ripped (confidence 20) [E38616D3] (AR v2)
Track 3 accurately ripped (confidence 20) [6C05C4C8] (AR v2)
Track 4 accurately ripped (confidence 20) [CA2DD96C] (AR v2)
Track 5 accurately ripped (confidence 20) [A4789BE6] (AR v2)
Track 6 accurately ripped (confidence 20) [BAB2977C] (AR v2)
Track 7 accurately ripped (confidence 20) [DA1120CD] (AR v2)
Track 8 accurately ripped (confidence 20) [9A7B7AEE] (AR v2)
Track 9 accurately ripped (confidence 20) [D3760BD1] (AR v2)
Track 10 accurately ripped (confidence 20) [3CCB30B9] (AR v2)

All tracks accurately ripped

End of status report
[свернуть]

Файл CUE

REM GENRE Fusion
REM DATE 1994
REM DISCID 840C390A
REM COMMENT "ExactAudioCopy v1.0b3"
PERFORMER "David Benoit & Russ Freeman"
TITLE "The Benoit / Freeman Project"
FILE "David Benoit & Russ Freeman - The Benoit , Freeman Project.flac" WAVE
TRACK 01 AUDIO
TITLE "Reunion"
PERFORMER "David Benoit & Russ Freeman"
INDEX 01 00:00:00
TRACK 02 AUDIO
TITLE "When She Believed in Me"
PERFORMER "David Benoit & Russ Freeman"
INDEX 00 05:05:72
INDEX 01 05:06:12
TRACK 03 AUDIO
TITLE "Mediterranean Nights"
PERFORMER "David Benoit & Russ Freeman"
INDEX 00 10:31:65
INDEX 01 10:32:07
TRACK 04 AUDIO
TITLE "Swept Away"
PERFORMER "David Benoit & Russ Freeman"
INDEX 00 17:29:17
INDEX 01 17:29:37
TRACK 05 AUDIO
TITLE "The End of Our Season"
PERFORMER "David Benoit & Russ Freeman"
INDEX 00 22:24:35
INDEX 01 22:26:37
TRACK 06 AUDIO
TITLE "After the Love Has Gone"
PERFORMER "David Benoit & Russ Freeman"
INDEX 00 26:42:62
INDEX 01 26:44:72
TRACK 07 AUDIO
TITLE "Smartypants"
PERFORMER "David Benoit & Russ Freeman"
INDEX 00 31:03:20
INDEX 01 31:04:52
TRACK 08 AUDIO
TITLE "It's the Thought That Counts"
PERFORMER "David Benoit & Russ Freeman"
INDEX 00 36:46:27
INDEX 01 36:47:65
TRACK 09 AUDIO
TITLE "Mirage"
PERFORMER "David Benoit & Russ Freeman"
INDEX 00 42:50:32
INDEX 01 42:52:10
TRACK 10 AUDIO
TITLE "That's All I Could Say"
PERFORMER "David Benoit & Russ Freeman"
INDEX 00 48:51:20
INDEX 01 48:52:52
[свернуть]

Лог проверки качества

AUDIOCHECKER v2.0 beta (build 457) - by Dester - [Ссылки могут видеть только зарегистрированные и активированные пользователи.]
[Only registered and activated users can see links.]
~~~~~~~~~~~~~~~~~~~~~~~~~~~~~~~~~~
-=== НЕ РЕДАКТИРУЙТЕ ЭТОТ ФАЙЛ! ===-

Путь: ...\David Benoit & Russ Freeman - 1994 - The Benoit _ Freeman Project [GRD-9739]

1 -=- David Benoit & Russ Freeman - The Benoit , Freeman Project.flac -=- CDDA (99%)

210731780
[свернуть]

Спектр частот

[свернуть]

Скачать David Benoit & Russ Freeman - The Benoit / Freeman Project

[Ссылки могут видеть только зарегистрированные и активированные пользователи.]
[Only registered and activated users can see links.]

password: sergych
[свернуть]
My opinion of release: 10/10
__________________
TAIFUN.Wings of Soul

Вверх
Пользователь сказал cпасибо:
johnsilver (27.08.2017)
Похожие темы
Тема Автор Раздел Ответов Последнее сообщение
Live The Rippingtons - Live in L.A. sergych Jazz и Blues 0 15.11.2014 08:39
Альбом The Rippingtons - Wild Card sergych Jazz и Blues 0 21.09.2013 12:34
Альбом The Rippingtons - Curves Ahead sergych Jazz и Blues 0 18.09.2013 22:15


Метки
1994 , david benoit , jazz fusion , russ freeman , smooth jazz , the benoit / freeman project

Опции темы

Ваши права в разделе
Вы не можете создавать новые темы
Вы не можете отвечать в темах
Вы не можете прикреплять вложения
Вы не можете редактировать свои сообщения

Быстрый переход



Текущее время: 09:19. Часовой пояс GMT +3.
Powered by vBulletin® Version 3.8.10
Copyright ©2000 - 2019, vBulletin Solutions, Inc. Перевод: zCarot
© 2008 - 2019 Taifun With Song
Яндекс.Метрика