TAIFUN With Song - качественная и редкая музыка
Навигация
Blues Rock К концу сороковых годов прошлого столетия в блюзе окончательно обосновалась электрогитара. Трудно сказать, что подтолкнуло многих блюзменов перейти с привычной акустической гитары на электрическую, но блюз с тех пор очень сильно изменился.

А знаете ли Вы, что...
Сколько аудиокассет производится в настоящее время в США?
«Фирма-производитель аудиокассет National Audio Company была открыта в 1969 году и осталась одной из немногих в США, кто сохранил оборудование после появления сначала компакт-дисков, а затем mp3. Сейчас она является лидером на этом рынке, производя более 10 миллионов кассет с записями в год. В 2015 году компания продала больше кассет, чем когда-либо в своей истории, поставляя их как для мэйджор-лейблов, так и для инди-групп. Президент компании объясняет этот успех ностальгией по аналоговым вещам, которые можно подержать в руках.»
 
Опции темы

  #1
Старый 01.03.2011, 04:32
TAIFUN
Admin
Досье
 
Аватар для TAIFUN
По умолчанию Livin' Blues - Blue Breeze


1976 - Livin' Blues - Blue Breeze




Исполнитель/Artist: Livin' Blues
Альбом/Album: Blue Breeze
Год/Year: 1976
Ремастеринг/Remaster: 1997
Жанр/Genre: Blues Rock
Страна/Country: Нидерланды
Рекорд-лейбл/Record label: Pseudonym
Номер в каталоге/Catalogue #: CDP-1044-DD
Формат/Format: Free Lossless Audio Codec (*.flac)
Качество/Quality: Lossless
Тип рипа/RIP Type: image+.cue
Продолжительность/Length: 01:07:32
Источник/Source: Собственный рип
Размер/Size: 410 MB

Сканы в комплекте

Треклист

1. Shylina (5:36)
2. Back Stage (5:53)
3. Midnight Blues (3:16)
4. Piesces (1:26)
5. Bus 29 (3:34)
6. Blue Breeze (8:23)
7. Pick Up on My Mojo (3:15)
8. That Night (5:18)
9. Black Jack Billy (3:39)

Bonus:
10. Shannon (4:53)
11. Punk Funk (3:45)
12. Roses (4:06)
13. Rock and Roll Hoochie Coo (5:10)
14. Will You Still Love Me (4:34)
15. Doomsday Night (4:13)
[свернуть]

Превью на YouTube

[свернуть]

EAC лог

Exact Audio Copy V1.0 beta 1 from 15. November 2010

EAC extraction logfile from 28. February 2011, 21:21

Livin' Blues / Blue Breeze

Used drive : HL-DT-STDVDRAM GSA-T10N Adapter: 3 ID: 1

Read mode : Secure
Utilize accurate stream : Yes
Defeat audio cache : Yes
Make use of C2 pointers : No

Read offset correction : 667
Overread into Lead-In and Lead-Out : No
Fill up missing offset samples with silence : Yes
Delete leading and trailing silent blocks : No
Null samples used in CRC calculations : Yes
Used interface : Installed external ASPI interface

Used output format : Internal WAV Routines
Sample format : 44.100 Hz; 16 Bit; Stereo


TOC of the extracted CD

Track | Start | Length | Start sector | End sector
---------------------------------------------------------
1 | 0:00.00 | 5:38.40 | 0 | 25389
2 | 5:38.40 | 5:54.40 | 25390 | 51979
3 | 11:33.05 | 3:19.10 | 51980 | 66914
4 | 14:52.15 | 1:27.20 | 66915 | 73459
5 | 16:19.35 | 3:36.07 | 73460 | 89666
6 | 19:55.42 | 8:24.25 | 89667 | 127491
7 | 28:19.67 | 3:16.48 | 127492 | 142239
8 | 31:36.40 | 5:19.70 | 142240 | 166234
9 | 36:56.35 | 3:42.67 | 166235 | 182951
10 | 40:39.27 | 4:54.60 | 182952 | 205061
11 | 45:34.12 | 3:46.45 | 205062 | 222056
12 | 49:20.57 | 4:07.58 | 222057 | 240639
13 | 53:28.40 | 5:12.35 | 240640 | 264074
14 | 58:41.00 | 4:36.37 | 264075 | 284811
15 | 63:17.37 | 4:14.55 | 284812 | 303916


Range status and errors

Selected range

Filename C:\Users\Сергей\Desktop\Livin' Blues - Blue Breeze.wav

Peak level 100.0 %
Extraction speed 0.2 X
Range quality 100.0 %
Copy CRC F8E5975F
Copy OK

No errors occurred


AccurateRip summary

Track 1 not present in database
Track 2 not present in database
Track 3 not present in database
Track 4 not present in database
Track 5 not present in database
Track 6 not present in database
Track 7 not present in database
Track 8 not present in database
Track 9 not present in database
Track 10 not present in database
Track 11 not present in database
Track 12 not present in database
Track 13 not present in database
Track 14 not present in database
Track 15 not present in database

None of the tracks are present in the AccurateRip database

End of status report
[свернуть]

Файл CUE

REM GENRE Blues
REM DATE 1976
REM DISCID E50FD40F
REM COMMENT "ExactAudioCopy v1.0b1"
PERFORMER "Livin' Blues"
TITLE "Blue Breeze"
FILE "Livin' Blues - Blue Breeze.flac" WAVE
TRACK 01 AUDIO
TITLE "Shylina"
PERFORMER "Livin' Blues"
INDEX 01 00:00:00
TRACK 02 AUDIO
TITLE "Back Stage"
PERFORMER "Livin' Blues"
INDEX 00 05:37:32
INDEX 01 05:38:40
TRACK 03 AUDIO
TITLE "Midnight Blues"
PERFORMER "Livin' Blues"
INDEX 00 11:32:35
INDEX 01 11:33:05
TRACK 04 AUDIO
TITLE "Pisces"
PERFORMER "Livin' Blues"
INDEX 00 14:50:32
INDEX 01 14:52:15
TRACK 05 AUDIO
TITLE "Bus 29"
PERFORMER "Livin' Blues"
INDEX 00 16:19:15
INDEX 01 16:19:35
TRACK 06 AUDIO
TITLE "Blue Breeze"
PERFORMER "Livin' Blues"
INDEX 00 19:54:47
INDEX 01 19:55:42
TRACK 07 AUDIO
TITLE "Pick Up On My Mojo"
PERFORMER "Livin' Blues"
INDEX 00 28:19:35
INDEX 01 28:19:67
TRACK 08 AUDIO
TITLE "That Night"
PERFORMER "Livin' Blues"
INDEX 00 31:35:20
INDEX 01 31:36:40
TRACK 09 AUDIO
TITLE "Black Jack Billy"
PERFORMER "Livin' Blues"
INDEX 00 36:55:57
INDEX 01 36:56:35
TRACK 10 AUDIO
TITLE "Shannon"
PERFORMER "Livin' Blues"
INDEX 00 40:36:00
INDEX 01 40:39:27
TRACK 11 AUDIO
TITLE "Punk Funk"
PERFORMER "Livin' Blues"
INDEX 00 45:33:12
INDEX 01 45:34:12
TRACK 12 AUDIO
TITLE "Roses"
PERFORMER "Livin' Blues"
INDEX 00 49:19:65
INDEX 01 49:20:57
TRACK 13 AUDIO
TITLE "Rock & Roll Hoochie Coo"
PERFORMER "Livin' Blues"
INDEX 00 53:27:12
INDEX 01 53:28:40
TRACK 14 AUDIO
TITLE "Will You Still Love Me"
PERFORMER "Livin' Blues"
INDEX 00 58:39:65
INDEX 01 58:41:00
TRACK 15 AUDIO
TITLE "Doomsday Night"
PERFORMER "Livin' Blues"
INDEX 00 63:16:17
INDEX 01 63:17:37
[свернуть]

Лог проверки качества

-----------------------

DON'T MODIFY THIS FILE

-----------------------

PERFORMER: auCDtect Task Manager, ver. 1.5.1RC4 build 1.5.1.5
Copyright (c) 2008-2010 y-soft. All rights reserved
[Ссылки могут видеть только зарегистрированные и активированные пользователи.]
[Only registered and activated users can see links.]

ANALYZER: auCDtect: CD records authenticity detector, version 0.8.2
Copyright (c) 2004 Oleg Berngardt. All rights reserved.
Copyright (c) 2004 Alexander Djourik. All rights reserved.


FILE: Livin' Blues - Blue Breeze.flac
Size: 416628428 Hash: E6CED2C1CCDACEAFC3D26A5D963C2FA0 Accuracy: -m0
Conclusion: CDDA 100%
Signature: C87F06A1E6E0A4EEFBC85F87DD03DEBC16D1901F
[свернуть]

Спектр частот

[свернуть]

Скачать Livin' Blues - Blue Breeze

[Ссылки могут видеть только зарегистрированные и активированные пользователи.]
[Only registered and activated users can see links.]
[свернуть]

Контрольная сумма (хеш-сумма) архива

MD5: 64a72a45f61093106c6c4fd87e60132d
[свернуть]
My opinion of release: 10/10

Release info RInfo

Track 09 "Black Jack Dilly" is given as "Black Jack Billy"
__________________
I love music
FAQ по форуму
Правила форума
Жизнь человека - это не самое главное в его жизни...


Последний раз редактировалось TAIFUN, 12.02.2019 в 01:48. Причина: Перезалив + перепаковка архива + добавлены отчёты
Вверх
4 пользователя(ей) сказали cпасибо:
Choveka (13.02.2019), johnsilver (12.02.2019), sergych (01.03.2011), swint68 (13.02.2019)
  #2
Старый 12.02.2019, 01:51
TAIFUN
Admin
Досье
 
Аватар для TAIFUN
По умолчанию Re: Livin' Blues - Blue Breeze

Обновление:
  • заменён апостроф в названии группы на правильный
  • замена битой ссылки (перезалив)
  • перепаковка архива
  • добавлены отчёты
  • исправлена ошибка в .cue - был указан 1975 год
  • оформление изменено согласно шаблону релиз-мастера
__________________
I love music
FAQ по форуму
Правила форума
Жизнь человека - это не самое главное в его жизни...


Последний раз редактировалось TAIFUN, 14.02.2019 в 12:37.
Вверх
2 пользователя(ей) сказали cпасибо:
sergych (14.02.2019), swint68 (13.02.2019)
  #3
Старый 13.02.2019, 12:25
Choveka
Пользователь
Досье
 
Аватар для Choveka
По умолчанию Re: Livin' Blues - Blue Breeze

Спасибо большое за раздачу. Был когда-то у меня этот альбом на аудио кассете. А сейчас тут в хорошем качестве. Слушаю уже второй раз подряд - радуюсь.

Вверх
Пользователь сказал cпасибо:
TAIFUN (14.02.2019)
  #4
Старый 14.02.2019, 14:04
TAIFUN
Admin
Досье
 
Аватар для TAIFUN
По умолчанию Re: Livin' Blues - Blue Breeze

Choveka, всегда пожалуйста.)
Я тоже иногда люблю переслушивать этот альбом.
Когда-то у меня была такая бобина, которую мы с отцом включали после нескольких бобин с хард роком.

P.S. Любимая бобина моей матери.
__________________
I love music
FAQ по форуму
Правила форума
Жизнь человека - это не самое главное в его жизни...

Вверх
Похожие темы
Тема Автор Раздел Ответов Последнее сообщение
Релиз Markey Blue - The Blues Are Knockin PUPOKIN Jazz и Blues 0 29.04.2016 14:14
Релиз Chicago Blues All-Stars - Red, Hot & Blue PUPOKIN Jazz и Blues 0 07.08.2013 10:48
Альбом Livin' Blues - Rocking At The Tweed Mill PUPOKIN Blues Rock 0 06.01.2011 10:35
Альбом Michael Barclay Blues Band - Blue Eyed Blues PUPOKIN Jazz и Blues 0 14.08.2010 10:47
Альбом Sammy Hagar - Livin' It Up PUPOKIN Hard Rock 0 19.02.2009 14:43


Метки
1976 , blue breeze , blues rock , livin' blues , livin` blues

Опции темы

Ваши права в разделе
Вы не можете создавать новые темы
Вы не можете отвечать в темах
Вы не можете прикреплять вложения
Вы не можете редактировать свои сообщения

Быстрый переход



Текущее время: 09:19. Часовой пояс GMT +3.
Powered by vBulletin® Version 3.8.10
Copyright ©2000 - 2019, vBulletin Solutions, Inc. Перевод: zCarot
© 2008 - 2019 Taifun With Song
Яндекс.Метрика