TAIFUN With Song - качественная и редкая музыка
Навигация
Pop Rock Поп-рок — жанр музыки, объединяющий элементы поп-музыки и рок-музыки. Песни характеризуются простой структурой, запоминающимися мелодиями, повторением музыкальных фраз (от попа), использованием в качестве основных инструментов электрогитар и ударных и агрессивным настроением (от рока).

А знаете ли Вы, что...
Кто написал чёрный квадрат за четверть века до Малевича?
«Французский писатель и юморист Альфонс Алле за четверть века до Казимира Малевича написал чёрный квадрат — картину под названием «Битва негров в пещере глубокой ночью». Также он почти на семьдесят лет предвосхитил минималистическую музыкальную пьесу из одной тишины «4’33"» Джона Кейджа своим аналогичным произведением «Траурный марш для похорон великого глухого».»
 
Опции темы

  #1
Старый 20.06.2020, 02:42
sergych
Координатор
Досье
 
Аватар для sergych
FLAC Scissor Sisters - Magic Hour


2012 - Scissor Sisters - Magic Hour




Исполнитель/Artist: Scissor Sisters
Альбом/Album: Magic Hour {Deluxe Edition}
Год/Year: 2012
Жанр/Genre: Dance-pop, nu-disco, new wave, house
Страна/Country: Германия
Рекорд-лейбл/Record label: Polydor
Номер в каталоге/Catalogue #: 37030570
Формат/Format: Free Lossless Audio Codec (*.flac)
Качество/Quality: Lossless
Тип рипа/RIP Type: image+.cue


Продолжительность/Length: 00:57:35
Источник/Source: Собственный рип
Размер/Size: 465.2 MB + 1.7GB

Сканы в комплекте

Треклист

01. Baby Come Home [0:03:00.28]
02. Keep Your Shoes On [0:02:51.71]
03. Inevitable [0:03:53.41]
04. Only The Horses [0:03:38.67]
05. Year Of Living Dangerously [0:03:52.52]
06. Let's Have A Kiki [0:03:49.63]
07. Shady Love [0:03:56.25]
08. San Luis Obispo [0:03:47.66]
09. Self Control [0:03:12.42]
10. Best In Me [0:03:44.09]
11. The Secret Life Of Letters [0:03:48.35]
12. Somewhere [0:03:40.60]

Bonus tracks:
13. Ms. Matronic's Magic Message [0:00:27.61]
14. Fuck Yeah [0:03:03.14]
15. Let's Have A Kiki (DJ Nita Rmx) [0:06:54.29]
16. Fuck Yeah (Seamus Haji Rmx) [0:03:52.46]
[свернуть]

Превью на YouTube

[свернуть]

Исполнители/Performers

Jake Shears - vocal, piano
Babydaddy - bass guitar, keyboards, backing vocals, rhythm guitar
Ana Matronic - vocal
Del Marquis - lead guitar, bass guitar
Randy Real - drums, electronic drums, percussion
[свернуть]

EAC лог

Exact Audio Copy V1.5 from 20. February 2020

EAC extraction logfile from 10. June 2020, 23:11

Scissor Sisters / Magic Hour

Used drive : PIONEER DVD-RW DVR-220L Adapter: 1 ID: 0

Read mode : Secure
Utilize accurate stream : Yes
Defeat audio cache : Yes
Make use of C2 pointers : No

Read offset correction : 6
Overread into Lead-In and Lead-Out : No
Fill up missing offset samples with silence : Yes
Delete leading and trailing silent blocks : No
Null samples used in CRC calculations : Yes
Used interface : Installed external ASPI interface

Used output format : User Defined Encoder
Selected bitrate : 1024 kBit/s
Quality : High
Add ID3 tag : No
Command line compressor : C:\Program Files (x86)\Exact Audio Copy\Flac\flac.exe
Additional command line options : -6 -V -T "ARTIST=%artist%" -T "TITLE=%title%" -T "ALBUM=%albumtitle%" -T "DATE=%year%" -T "TRACKNUMBER=%tracknr%" -T "GENRE=%genre%" -T "COMMENT=%comment%" -T "BAND=%albuminterpret%" -T "ALBUMARTIST=%albuminterpret%" -T "COMPOSER=%composer%" %haslyrics%--tag-from-file=LYRICS="%lyricsfile%"%haslyrics% -T "DISCNUMBER=%cdnumber%" -T "TOTALDISCS=%totalcds%" -T "TOTALTRACKS=%numtracks%" %hascover%--picture="%coverfile%"%hascover% %source% -o %dest%


TOC of the extracted CD

Track | Start | Length | Start sector | End sector
---------------------------------------------------------
1 | 0:00.00 | 3:00.28 | 0 | 13527
2 | 3:00.28 | 2:51.71 | 13528 | 26423
3 | 5:52.24 | 3:53.41 | 26424 | 43939
4 | 9:45.65 | 3:38.67 | 43940 | 60356
5 | 13:24.57 | 3:52.52 | 60357 | 77808
6 | 17:17.34 | 3:49.63 | 77809 | 95046
7 | 21:07.22 | 3:56.25 | 95047 | 112771
8 | 25:03.47 | 3:47.66 | 112772 | 129862
9 | 28:51.38 | 3:12.42 | 129863 | 144304
10 | 32:04.05 | 3:44.09 | 144305 | 161113
11 | 35:48.14 | 3:48.35 | 161114 | 178248
12 | 39:36.49 | 3:40.60 | 178249 | 194808
13 | 43:17.34 | 0:27.61 | 194809 | 196894
14 | 43:45.20 | 3:03.14 | 196895 | 210633
15 | 46:48.34 | 6:54.29 | 210634 | 241712
16 | 53:42.63 | 3:52.46 | 241713 | 259158


Range status and errors

Selected range

Filename C:\mm\Scissor Sisters\2012 - Magic Hour {Deluxe Edition} [37030570]\Scissor Sisters - Magic Hour.wav

Peak level 98.8 %
Extraction speed 1.9 X
Range quality 99.9 %
Test CRC FEB19A36
Copy CRC FEB19A36
Copy OK

No errors occurred


AccurateRip summary

Track 1 accurately ripped (confidence 110) [04CC4499] (AR v2)
Track 2 accurately ripped (confidence 109) [A2AFBF4E] (AR v2)
Track 3 accurately ripped (confidence 109) [59BC187B] (AR v2)
Track 4 accurately ripped (confidence 110) [A58ABBC2] (AR v2)
Track 5 accurately ripped (confidence 110) [AEDF2EE6] (AR v2)
Track 6 accurately ripped (confidence 110) [BC89D294] (AR v2)
Track 7 accurately ripped (confidence 110) [507D3E93] (AR v2)
Track 8 accurately ripped (confidence 110) [9591E44A] (AR v2)
Track 9 accurately ripped (confidence 109) [C230BBDA] (AR v2)
Track 10 accurately ripped (confidence 109) [221F199B] (AR v2)
Track 11 accurately ripped (confidence 108) [8DD566A6] (AR v2)
Track 12 accurately ripped (confidence 108) [039306B4] (AR v2)
Track 13 accurately ripped (confidence 109) [63FB5243] (AR v2)
Track 14 accurately ripped (confidence 109) [FA0DA1A8] (AR v2)
Track 15 accurately ripped (confidence 109) [B18D197F] (AR v2)
Track 16 accurately ripped (confidence 105) [0CC2C03B] (AR v2)

All tracks accurately ripped

End of status report

---- CUETools DB Plugin V2.1.6

[CTDB TOCID: QGQe6ZYM5AXVlb5ZXPSXt7m.YcU-] found
Submit result: QGQe6ZYM5AXVlb5ZXPSXt7m.YcU- has been confirmed
Track | CTDB Status
1 | (134/135) Accurately ripped
2 | (134/135) Accurately ripped
3 | (135/135) Accurately ripped
4 | (135/135) Accurately ripped
5 | (135/135) Accurately ripped
6 | (133/135) Accurately ripped
7 | (133/135) Accurately ripped
8 | (133/135) Accurately ripped
9 | (133/135) Accurately ripped
10 | (135/135) Accurately ripped
11 | (134/135) Accurately ripped
12 | (135/135) Accurately ripped
13 | (135/135) Accurately ripped
14 | (135/135) Accurately ripped
15 | (133/135) Accurately ripped
16 | (130/135) Accurately ripped
[свернуть]

Файл CUE

REM GENRE Electronic
REM DATE 2012
REM DISCID E10D7F10
REM COMMENT "ExactAudioCopy v1.5"
PERFORMER "Scissor Sisters"
TITLE "Magic Hour"
REM COMPOSER ""
FILE "Scissor Sisters - Magic Hour.flac" WAVE
TRACK 01 AUDIO
TITLE "Baby Come Home"
PERFORMER "Scissor Sisters"
REM COMPOSER ""
FLAGS DCP
INDEX 01 00:00:00
TRACK 02 AUDIO
TITLE "Keep Your Shoes On"
PERFORMER "Scissor Sisters"
REM COMPOSER ""
FLAGS DCP
INDEX 01 03:00:28
TRACK 03 AUDIO
TITLE "Inevitable"
PERFORMER "Scissor Sisters"
REM COMPOSER ""
FLAGS DCP
INDEX 01 05:52:24
TRACK 04 AUDIO
TITLE "Only The Horses"
PERFORMER "Scissor Sisters"
REM COMPOSER ""
FLAGS DCP
INDEX 01 09:45:65
TRACK 05 AUDIO
TITLE "Year Of Living Dangerously"
PERFORMER "Scissor Sisters"
REM COMPOSER ""
FLAGS DCP
INDEX 01 13:24:57
TRACK 06 AUDIO
TITLE "Let's Have A Kiki"
PERFORMER "Scissor Sisters"
REM COMPOSER ""
FLAGS DCP
INDEX 01 17:17:34
TRACK 07 AUDIO
TITLE "Shady Love"
PERFORMER "Scissor Sisters"
REM COMPOSER ""
FLAGS DCP
INDEX 01 21:07:22
TRACK 08 AUDIO
TITLE "San Luis Obispo"
PERFORMER "Scissor Sisters"
REM COMPOSER ""
FLAGS DCP
INDEX 01 25:03:47
TRACK 09 AUDIO
TITLE "Self Control"
PERFORMER "Scissor Sisters"
REM COMPOSER ""
FLAGS DCP
INDEX 01 28:51:38
TRACK 10 AUDIO
TITLE "Best In Me"
PERFORMER "Scissor Sisters"
REM COMPOSER ""
FLAGS DCP
INDEX 01 32:04:05
TRACK 11 AUDIO
TITLE "The Secret Life Of Letters"
PERFORMER "Scissor Sisters"
REM COMPOSER ""
FLAGS DCP
INDEX 01 35:48:14
TRACK 12 AUDIO
TITLE "Somewhere"
PERFORMER "Scissor Sisters"
REM COMPOSER ""
FLAGS DCP
INDEX 01 39:36:49
TRACK 13 AUDIO
TITLE "Ms. Matronic's Magic Message"
PERFORMER "Scissor Sisters"
REM COMPOSER ""
FLAGS DCP
INDEX 01 43:17:34
TRACK 14 AUDIO
TITLE "Fuck Yeah"
PERFORMER "Scissor Sisters"
REM COMPOSER ""
FLAGS DCP
INDEX 01 43:45:20
TRACK 15 AUDIO
TITLE "Let's Have A Kiki (DJ Nita Rmx)"
PERFORMER "Scissor Sisters"
REM COMPOSER ""
FLAGS DCP
INDEX 01 46:48:34
TRACK 16 AUDIO
TITLE "Fuck Yeah (Seamus Haji Rmx)"
PERFORMER "Scissor Sisters"
REM COMPOSER ""
FLAGS DCP
INDEX 01 53:42:63
[свернуть]

Лог проверки качества

AUDIOCHECKER v2.0 beta (build 457) - by Dester - [Ссылки могут видеть только зарегистрированные и активированные пользователи.]
[Only registered and activated users can see links.]
~~~~~~~~~~~~~~~~~~~~~~~~~~~~~~~~~~
-=== НЕ РЕДАКТИРУЙТЕ ЭТОТ ФАЙЛ! ===-

Путь: ...\2012 - Magic Hour {Deluxe Edition} [37030570]

1 -=- Scissor Sisters - Magic Hour.flac -=- CDDA (100%)

92963204
=======
PERFORMER: auCDtect Task Manager, ver. 1.6.0 RC1 build 1.6.0.1
Copyright © 2008-2010 y-soft. All rights reserved
[Ссылки могут видеть только зарегистрированные и активированные пользователи.]
[Only registered and activated users can see links.]

ANALYZER: auCDtect: CD records authenticity detector, version 0.8.2
Copyright © 2004 Oleg Berngardt. All rights reserved.
Copyright © 2004 Alexander Djourik. All rights reserved.


FILE: Scissor Sisters - Magic Hour.flac
Size: 417809628 Hash: 6C1E46D730D021AF9421EC49857D1DDE Accuracy: -m8
Conclusion: CDDA 100%
Signature: B742AB0436EE8D19F85476B0763F765558649428
[свернуть]

Спектр частот

[свернуть]

Скачать Scissor Sisters - Magic Hour

[Ссылки могут видеть только зарегистрированные и активированные пользователи.]
[Only registered and activated users can see links.]

password: sergych

[Ссылки могут видеть только зарегистрированные и активированные пользователи.]
[Only registered and activated users can see links.]
[свернуть]

Контрольная сумма (хеш-сумма) архива

MD5:
Audio CD
0114a547e4a5bfc062a8dcdee6e4a2b6

DVD
68fb6f7c7233d288dd65e5286026e3d0
[свернуть]
My opinion of release: 9/10

Release info RInfo

Аудио с бонус-треками. На DVD длинное интервью с Джейком Ширзом, клип Only The Horses и рабочие моменты съёмки этого клипа
__________________
TAIFUN.Wings of Soul

Вверх
Пользователь сказал cпасибо:
TAIFUN (20.06.2020)
 
Похожие темы
Тема Автор Раздел Ответов Последнее сообщение
Альбом Scissor Sisters - Night Work sergych Pop Rock 0 16.05.2020 03:48
Альбом Scissor Sisters - Scissor Sisters sergych Pop Rock 0 06.04.2016 20:14
Альбом Scissor Sisters - Ta-Dah sergych Pop Rock 1 27.06.2015 19:17
Релиз Magic Brothers – The Magic Line PUPOKIN Pop Rock 0 12.12.2013 08:09
Релиз Scissor Sisters - Magic Hour(Deluxe Edition) PUPOKIN Зарубежная Поп-Музыка 0 25.05.2012 08:57


Метки
2012 , dance-pop , deluxe edition , house , magic hour , new wave , nu-disco , scissor sisters

Опции темы

Ваши права в разделе
Вы не можете создавать новые темы
Вы не можете отвечать в темах
Вы не можете прикреплять вложения
Вы не можете редактировать свои сообщения

Быстрый переход


Текущее время: 15:48. Часовой пояс GMT +3.

© 2008 - 2020 Taifun With Song
Powered by vBulletin® Version 3.8.10
Copyright ©2000 - 2020, vBulletin Solutions, Inc. Перевод: zCarot
При поддержке NIC.UA
Яндекс.Метрика