TAIFUN With Song - качественная и редкая музыка
Навигация
Jazz и Blues Гибкая ритмика, импровизационное начало, гармонии и мелодии - все это Jazz. Blues - жизнеутверждающая музыка, рожденная из душевной боли

А знаете ли Вы, что...
Какой рок-вокалист ещё в школьные годы откусил себе кусочек языка?
«Характерному тембру своего голоса солист Rolling Stones Мик Джаггер отчасти обязан баскетболу, которым он увлекался в школе. На одном из матчей Мик с такой силой врезался в соперника, что откусил себе кусочек языка. После этого он не говорил неделю, а когда заговорил, то понял, что голос изменился.»
 
Опции темы

  #1
Старый 16.06.2020, 11:32
sergych
Координатор
Досье
 
Аватар для sergych
FLAC Oscar Peterson and Freddie Hubbard - Face to Face


1997 - Oscar Peterson and Freddie Hubbard - Face to Face




Исполнитель/Artist: Oscar Peterson and Freddie Hubbard
Альбом/Album: Face to Face
Год/Year: 1997
Жанр/Genre: Jazz, Swing
Страна/Country: Соединённые Штаты
Рекорд-лейбл/Record label: Pablo Records / Original Jazz Classics
Номер в каталоге/Catalogue #: OJCCD-937-2(2310-876)
Дата записи/Recording date: 1982-05-24
Формат/Format: Free Lossless Audio Codec (*.flac)
Качество/Quality: Lossless
Тип рипа/RIP Type: image+.cue
Продолжительность/Length: 00:44:45
Источник/Source: Собственный рип
Размер/Size: 341.3 MB

Сканы в комплекте

Треклист

01. All Blues [0:13:58.37]
02. Thermo [0:08:21.73]
03. Weaver of Dreams [0:08:31.07]
04. Portrait of Jenny [0:06:53.40]
05. Tippin' [0:07:00.13]
[свернуть]

Превью на YouTube

[свернуть]

Исполнители/Performers

Oscar Peterson – piano
Freddie Hubbard – trumpet
Joe Pass – guitar
Niels-Henning Ørsted Pedersen – double bass
Martin Drew – drums
[свернуть]

EAC лог

Exact Audio Copy V1.5 from 20. February 2020

EAC extraction logfile from 31. May 2020, 7:21

Oscar Peterson and Freddie Hubbard / Face to Face

Used drive : PIONEER DVD-RW DVR-220L Adapter: 1 ID: 0

Read mode : Secure
Utilize accurate stream : Yes
Defeat audio cache : Yes
Make use of C2 pointers : No

Read offset correction : 6
Overread into Lead-In and Lead-Out : No
Fill up missing offset samples with silence : Yes
Delete leading and trailing silent blocks : No
Null samples used in CRC calculations : Yes
Used interface : Installed external ASPI interface

Used output format : User Defined Encoder
Selected bitrate : 1024 kBit/s
Quality : High
Add ID3 tag : No
Command line compressor : C:\Program Files (x86)\Exact Audio Copy\Flac\flac.exe
Additional command line options : -6 -V -T "ARTIST=%artist%" -T "TITLE=%title%" -T "ALBUM=%albumtitle%" -T "DATE=%year%" -T "TRACKNUMBER=%tracknr%" -T "GENRE=%genre%" -T "COMMENT=%comment%" -T "BAND=%albuminterpret%" -T "ALBUMARTIST=%albuminterpret%" -T "COMPOSER=%composer%" %haslyrics%--tag-from-file=LYRICS="%lyricsfile%"%haslyrics% -T "DISCNUMBER=%cdnumber%" -T "TOTALDISCS=%totalcds%" -T "TOTALTRACKS=%numtracks%" %hascover%--picture="%coverfile%"%hascover% %source% -o %dest%


TOC of the extracted CD

Track | Start | Length | Start sector | End sector
---------------------------------------------------------
1 | 0:00.00 | 13:58.37 | 0 | 62886
2 | 13:58.37 | 8:21.73 | 62887 | 100534
3 | 22:20.35 | 8:31.07 | 100535 | 138866
4 | 30:51.42 | 6:53.40 | 138867 | 169881
5 | 37:45.07 | 7:00.13 | 169882 | 201394


Range status and errors

Selected range

Filename C:\mm\Oscar Peterson\1982(1997) - Face To Face (Freddie Hubbard & Oscar Peterson) [OJCCD-937-2(2310-876)]\Covers\Oscar Peterson and Freddie Hubbard - Face to Face.wav

Peak level 94.5 %
Extraction speed 7.5 X
Range quality 100.0 %
Test CRC B6230117
Copy CRC B6230117
Copy OK

No errors occurred


AccurateRip summary

Track 1 cannot be verified as accurate (confidence 4) [7D31BF94], AccurateRip returned [63A398AE] (AR v2)
Track 2 cannot be verified as accurate (confidence 4) [8D0286F9], AccurateRip returned [4DA0BF17] (AR v2)
Track 3 cannot be verified as accurate (confidence 4) [0DC30D87], AccurateRip returned [7F94A856] (AR v2)
Track 4 cannot be verified as accurate (confidence 4) [23C3FF1E], AccurateRip returned [F5504EBC] (AR v2)
Track 5 cannot be verified as accurate (confidence 4) [7913ABD8], AccurateRip returned [8870D946] (AR v2)

No tracks could be verified as accurate
You may have a different pressing from the one(s) in the database

End of status report

---- CUETools DB Plugin V2.1.6

[CTDB TOCID: sqCVa6JHxep9UG4oZq3cBy4yLxs-] found
Submit result: sqCVa6JHxep9UG4oZq3cBy4yLxs- has been confirmed
Track | CTDB Status
1 | (26/28) Accurately ripped
2 | (26/28) Accurately ripped
3 | (26/28) Accurately ripped
4 | (25/28) Accurately ripped
5 | (25/28) Accurately ripped
[свернуть]

Файл CUE

REM GENRE Jazz
REM DATE 1982
REM DISCID 3A0A7D05
REM COMMENT "ExactAudioCopy v1.5"
PERFORMER "Oscar Peterson and Freddie Hubbard"
TITLE "Face to Face"
REM COMPOSER ""
FILE "Oscar Peterson and Freddie Hubbard - Face to Face.flac" WAVE
TRACK 01 AUDIO
TITLE "All Blues"
PERFORMER "Oscar Peterson and Freddie Hubbard"
REM COMPOSER ""
INDEX 01 00:00:00
TRACK 02 AUDIO
TITLE "Thermo"
PERFORMER "Oscar Peterson and Freddie Hubbard"
REM COMPOSER ""
INDEX 00 13:53:67
INDEX 01 13:58:37
TRACK 03 AUDIO
TITLE "Weaver of Dreams"
PERFORMER "Oscar Peterson and Freddie Hubbard"
REM COMPOSER ""
INDEX 00 22:17:57
INDEX 01 22:20:35
TRACK 04 AUDIO
TITLE "Portrait of Jenny"
PERFORMER "Oscar Peterson and Freddie Hubbard"
REM COMPOSER ""
INDEX 00 30:48:60
INDEX 01 30:51:42
TRACK 05 AUDIO
TITLE "Tippin'"
PERFORMER "Oscar Peterson and Freddie Hubbard"
REM COMPOSER ""
INDEX 00 37:42:47
INDEX 01 37:45:07
[свернуть]

Лог проверки качества

AUDIOCHECKER v2.0 beta (build 457) - by Dester - [Ссылки могут видеть только зарегистрированные и активированные пользователи.]
[Only registered and activated users can see links.]
~~~~~~~~~~~~~~~~~~~~~~~~~~~~~~~~~~
-=== НЕ РЕДАКТИРУЙТЕ ЭТОТ ФАЙЛ! ===-

Путь: ...\1982(1997) - Face To Face (Freddie Hubbard & Oscar Peterson) [OJCCD-937-2(2310-876)]

1 -=- Oscar Peterson and Freddie Hubbard - Face to Face.flac -=- CDDA (100%)

253754660
========
PERFORMER: auCDtect Task Manager, ver. 1.6.0 RC1 build 1.6.0.1
Copyright © 2008-2010 y-soft. All rights reserved
[Ссылки могут видеть только зарегистрированные и активированные пользователи.]
[Only registered and activated users can see links.]

ANALYZER: auCDtect: CD records authenticity detector, version 0.8.2
Copyright © 2004 Oleg Berngardt. All rights reserved.
Copyright © 2004 Alexander Djourik. All rights reserved.


FILE: Oscar Peterson and Freddie Hubbard - Face to Face.flac
Size: 264088203 Hash: A67B31C8F018CFD602609CDF470FC028 Accuracy: -m8
Conclusion: CDDA 100%
Signature: 4ECCF9DDA8FB5B2D0340B66FE707F582FF77C799
[свернуть]

Спектр частот

[свернуть]

Скачать Oscar Peterson and Freddie Hubbard - Face to Face

[Ссылки могут видеть только зарегистрированные и активированные пользователи.]
[Only registered and activated users can see links.]

password: sergych
[свернуть]

Контрольная сумма (хеш-сумма) архива

MD5: 02080616c8daf8cb3dc3878359bba69f
[свернуть]
My opinion of release: 10/10
__________________
TAIFUN.Wings of Soul

Вверх
Пользователь сказал cпасибо:
TAIFUN (17.06.2020)
 
Похожие темы
Тема Автор Раздел Ответов Последнее сообщение
Релиз Driven Under – Face To Face PUPOKIN Heavy Metal 0 09.08.2016 12:43
Альбом Oscar Peterson - Oscar Peterson Plays Duke Ellington sergych Jazz и Blues 1 05.03.2015 20:44
Релиз Jaws Underground - Face To Face PUPOKIN Trance 0 12.03.2009 10:41
Альбом Oscar Peterson - Oscar Peterson plays Porgy & Bess sergych Jazz и Blues 0 27.12.2008 06:28
Альбом John Lee Hooker - Face To Face PUPOKIN Jazz и Blues 0 09.09.2008 09:32


Метки
1982 , 1997 , face to face , freddie hubbard , jazz , oscar peterson , oscar peterson and freddie hubbard , swing

Опции темы

Ваши права в разделе
Вы не можете создавать новые темы
Вы не можете отвечать в темах
Вы не можете прикреплять вложения
Вы не можете редактировать свои сообщения

Быстрый переход


Текущее время: 14:54. Часовой пояс GMT +3.

© 2008 - 2020 Taifun With Song
Powered by vBulletin® Version 3.8.10
Copyright ©2000 - 2020, vBulletin Solutions, Inc. Перевод: zCarot
При поддержке NIC.UA
Яндекс.Метрика