TAIFUN With Song - качественная и редкая музыка
Навигация
Hard Rock То, что может восприниматься слушателем как «тяжесть» в хард-роке, достигается, в частности, за счет специфического звучания электрогитары (с такими эффектами, как например, дисторшн и овердрайв) и работы ритм-секции. «Классический» хард-рок обрёл формы в конце 1960-х — начале 1970-х годов в Великобритании. Классический хард-рок отличается от хеви-металла более мелодичным звучанием.

А знаете ли Вы, что...
Чем прославился Боб Марли до того, как стать музыкантом?
«Знаменитый ямайский регги-музыкант Боб Марли в детстве был известен в своей деревне как талантливый предсказатель по линиям на ладонях.»
 
Опции темы

  #1
Старый 09.01.2020, 15:26
sergych
Координатор
Досье
 
Аватар для sergych
FLAC Aerosmith - Aerosmith


1973(1996) - Aerosmith - Aerosmith




Исполнитель/Artist: Aerosmith
Альбом/Album: Aerosmith
Год/Year: 1973
Ремастеринг/Remaster: 1996
Жанр/Genre: Hard rock, blues rock
Страна/Country: Япония
Рекорд-лейбл/Record label: Sony Music
Номер в каталоге/Catalogue #: SRCS 9045
Формат/Format: Free Lossless Audio Codec (*.flac)
Качество/Quality: Lossless
Тип рипа/RIP Type: image+.cue
Продолжительность/Length: 00:35:52
Источник/Source: Собственный рип
Размер/Size: 269.3 MB

Сканы в комплекте

Треклист

01. Make It [0:03:40.52]
02. Somebody [0:03:45.30]
03. Dream On [0:04:27.45]
04. One Way Street [0:07:02.05]
05. Mama Kin [0:04:28.55]
06. Write Me a Letter [0:04:12.00]
07. Movin' Out [0:05:02.13]
08. Walking the Dog [0:03:13.22]
[свернуть]

Превью на YouTube

[свернуть]

Исполнители/Performers

Steven Tyler – lead vocals, keyboards, harmonica, flute, percussion
Joe Perry – guitar, backing vocals, second half solo on "One Way Street"
Brad Whitford – guitar, first half solo on "One Way Street"
Tom Hamilton – bass guitar
Joey Kramer – drums

Additional musicians
David Woodford – saxophone on "Mama Kin" and "Write Me a Letter"
[свернуть]

EAC лог

Exact Audio Copy V1.3 from 2. September 2016

EAC extraction logfile from 28. December 2019, 22:05

Aerosmith / Aerosmith

Used drive : PIONEER DVD-RW DVR-220L Adapter: 1 ID: 0

Read mode : Secure
Utilize accurate stream : Yes
Defeat audio cache : Yes
Make use of C2 pointers : No

Read offset correction : 6
Overread into Lead-In and Lead-Out : No
Fill up missing offset samples with silence : Yes
Delete leading and trailing silent blocks : No
Null samples used in CRC calculations : Yes
Used interface : Installed external ASPI interface

Used output format : User Defined Encoder
Selected bitrate : 1024 kBit/s
Quality : High
Add ID3 tag : No
Command line compressor : C:\Program Files (x86)\Exact Audio Copy\Flac\flac.exe
Additional command line options : -6 -V -T "ARTIST=%artist%" -T "TITLE=%title%" -T "ALBUM=%albumtitle%" -T "DATE=%year%" -T "TRACKNUMBER=%tracknr%" -T "GENRE=%genre%" -T "COMMENT=%comment%" -T "BAND=%albuminterpret%" -T "ALBUMARTIST=%albuminterpret%" -T "COMPOSER=%composer%" %haslyrics%--tag-from-file=LYRICS="%lyricsfile%"%haslyrics% -T "DISCNUMBER=%cdnumber%" -T "TOTALDISCS=%totalcds%" -T "TOTALTRACKS=%numtracks%" %hascover%--picture="%coverfile%"%hascover% %source% -o %dest%


TOC of the extracted CD

Track | Start | Length | Start sector | End sector
---------------------------------------------------------
1 | 0:00.00 | 3:40.52 | 0 | 16551
2 | 3:40.52 | 3:45.30 | 16552 | 33456
3 | 7:26.07 | 4:27.45 | 33457 | 53526
4 | 11:53.52 | 7:02.05 | 53527 | 85181
5 | 18:55.57 | 4:28.55 | 85182 | 105336
6 | 23:24.37 | 4:12.00 | 105337 | 124236
7 | 27:36.37 | 5:02.13 | 124237 | 146899
8 | 32:38.50 | 3:13.22 | 146900 | 161396


Range status and errors

Selected range

Filename C:\mm\Aerosmith\1973(1996) - Aerosmith [SRCS 9045]\Aerosmith - Aerosmith.wav

Peak level 100.0 %
Extraction speed 6.5 X
Range quality 100.0 %
Test CRC 90E13AD5
Copy CRC 90E13AD5
Copy OK

No errors occurred


AccurateRip summary

Track 1 accurately ripped (confidence 3) [09EF434C] (AR v2)
Track 2 accurately ripped (confidence 3) [C4CB5BCC] (AR v2)
Track 3 accurately ripped (confidence 3) [57CF5383] (AR v2)
Track 4 accurately ripped (confidence 3) [470C8AB0] (AR v2)
Track 5 accurately ripped (confidence 3) [42C45C48] (AR v2)
Track 6 accurately ripped (confidence 3) [E23C5BAA] (AR v2)
Track 7 accurately ripped (confidence 3) [33022B8F] (AR v2)
Track 8 accurately ripped (confidence 3) [FDB5D975] (AR v2)

All tracks accurately ripped

End of status report
[свернуть]

Файл CUE

REM GENRE "Blues Rock"
REM DATE 1973
REM DISCID 60086708
REM COMMENT "ExactAudioCopy v1.3"
PERFORMER "Aerosmith"
TITLE "Aerosmith"
REM COMPOSER ""
FILE "Aerosmith - Aerosmith.flac" WAVE
TRACK 01 AUDIO
TITLE "Make It"
PERFORMER "Aerosmith"
REM COMPOSER ""
INDEX 01 00:00:00
TRACK 02 AUDIO
TITLE "Somebody"
PERFORMER "Aerosmith"
REM COMPOSER ""
INDEX 01 03:40:52
TRACK 03 AUDIO
TITLE "Dream On"
PERFORMER "Aerosmith"
REM COMPOSER ""
INDEX 01 07:26:07
TRACK 04 AUDIO
TITLE "One Way Street"
PERFORMER "Aerosmith"
REM COMPOSER ""
INDEX 01 11:53:52
TRACK 05 AUDIO
TITLE "Mama Kin"
PERFORMER "Aerosmith"
REM COMPOSER ""
INDEX 01 18:55:57
TRACK 06 AUDIO
TITLE "Write Me a Letter"
PERFORMER "Aerosmith"
REM COMPOSER ""
INDEX 00 23:23:37
INDEX 01 23:24:37
TRACK 07 AUDIO
TITLE "Movin' Out"
PERFORMER "Aerosmith"
REM COMPOSER ""
INDEX 01 27:36:37
TRACK 08 AUDIO
TITLE "Walking the Dog"
PERFORMER "Aerosmith"
REM COMPOSER ""
INDEX 01 32:38:50
[свернуть]

Лог проверки качества

AUDIOCHECKER v2.0 beta (build 457) - by Dester - [Ссылки могут видеть только зарегистрированные и активированные пользователи.]
[Only registered and activated users can see links.]
~~~~~~~~~~~~~~~~~~~~~~~~~~~~~~~~~~
-=== НЕ РЕДАКТИРУЙТЕ ЭТОТ ФАЙЛ! ===-

Путь: ...\1973(1996) - Aerosmith [SRCS 9045]

1 -=- Aerosmith - Aerosmith.flac -=- CDDA (100%)

45844772
[свернуть]

Спектр частот

[свернуть]

Скачать Aerosmith - Aerosmith

[Ссылки могут видеть только зарегистрированные и активированные пользователи.]
[Only registered and activated users can see links.]

password: sergych
[свернуть]

Контрольная сумма (хеш-сумма) архива

MD5: 189c97e748bc945e589d7ca05afae5dd
[свернуть]
My opinion of release: 9/10
__________________
TAIFUN.Wings of Soul

Вверх
2 пользователя(ей) сказали cпасибо:
Lighting1981 (10.01.2020), swint68 (11.01.2020)
 
Похожие темы
Тема Автор Раздел Ответов Последнее сообщение
Сборник Aerosmith - The Essential Aerosmith sergych Hard Rock 2 03.09.2016 09:23
Сборник Aerosmith - The Best Of Aerosmith {20th Century Masters. The Millennium Collection} sergych Hard Rock 0 04.08.2015 21:49
Сборник Aerosmith - Young Lust: The Aerosmith Anthology aheron Hard Rock 0 30.05.2013 22:32
Сборник Aerosmith - O, Yeah! (Ultimate Aerosmith Hits) sergych Hard Rock 0 31.07.2008 17:28
Сборник Aerosmith - The Very Best Of Aerosmith (Devil's Got A New Disguise) aheron Hard Rock 0 31.07.2008 17:28


Метки
1973 , aerosmith , blues rock , hard rock

Опции темы

Ваши права в разделе
Вы не можете создавать новые темы
Вы не можете отвечать в темах
Вы не можете прикреплять вложения
Вы не можете редактировать свои сообщения

Быстрый переход


Текущее время: 07:34. Часовой пояс GMT +3.

© 2008 - 2020 Taifun With Song
Powered by vBulletin® Version 3.8.10
Copyright ©2000 - 2020, vBulletin Solutions, Inc. Перевод: zCarot
При поддержке NIC.UA
Яндекс.Метрика