TAIFUN With Song - качественная и редкая музыка
Навигация
Heavy Metal Выражение "Heavy Metall" впервые появилось в романе известного американского писателя Уильяма Берроуза "Naked Lunch" (1959), где он использует этот термин для описания резкой, непривычной музыки. Элемент импровизации в истинном "металле" практически сведен к нулю, точнее - он отсутствует в традиционном смысле этого слова, однако опытные "металлические" группы (Metallica, Slayer, Megadeth) часто вводят в свои композиции очень сложные изменения ритма, и у неподготовленного слушателя может возникнуть ощущение какофонии, хотя речь идет о ритмической импровизации, по духу очень близкой той, которую исследуют серьезные современные композиторы.

А знаете ли Вы, что...
Какая мистификация лежит в основе создания песни «Город золотой»?
«Советский музыкант Владимир Вавилов в 1970 году записал пластинку, вышедшую под названием «Лютневая музыка XVI—XVII веков». Авторами мелодий были указаны различные зарубежные композиторы той эпохи, и лишь после смерти Вавилова выяснилось, что он сочинил всё сам. Среди композиций была и «Сюита для лютни: канцона и танец», приписанная Франческо Канова де Милано. Анри Волохонский написал стихи для этой мелодии, а популярной песня стала в исполнении Бориса Гребенщикова. Правда, тот вместо «Над небом голубым» спел «Под небом голубым», всего одним словом, по мнению некоторых критиков, кардинально изменив смысл текста.»
 
Опции темы

  #1
Старый 09.01.2020, 09:37
swint68
Релизёр
Досье
 
Аватар для swint68
FLAC Kobra and The Lotus - Prevail II


2018 - Kobra and The Lotus - Prevail II




Исполнитель/Artist: Kobra and The Lotus
Альбом/Album: Prevail II
Год/Year: 2018
Жанр/Genre: Heavy Metal, Modern Metal, Hard Rock
Страна/Country: Япония
Рекорд-лейбл/Record label: Ward Records; Chaos Reigns
Номер в каталоге/Catalogue #: GQCS-90585
Формат/Format: Free Lossless Audio Codec (*.flac)
Качество/Quality: Lossless
Тип рипа/RIP Type: image+.cue
Продолжительность/Length: 00:55:24
Источник/Source: Ilijan
Размер/Size: 477 MB

Сканы в комплекте

Треклист

01. Losing My Humanity
02. Let Me Love You
03. Ribe (Instrumental)
04. My Immortal
05. Human Empire
06. Heartache
07. Velvet Roses
08. White Water
09. You’re Insane
10. Modern Day Hero
11. Let Me Love You (bonus' Japanese vers.)
12. Let Me Love You (bonus' Acoustic)
[свернуть]

Превью на YouTube

[свернуть]

EAC лог

Exact Audio Copy V1.3 from 2. September 2016

EAC extraction logfile from 14. May 2018, 10:11

Kobra And The Lotus / Prevail II (Japan)

Used drive : ATAPI iHAS122 W Adapter: 2 ID: 0

Read mode : Secure
Utilize accurate stream : Yes
Defeat audio cache : Yes
Make use of C2 pointers : No

Read offset correction : 48
Overread into Lead-In and Lead-Out : No
Fill up missing offset samples with silence : Yes
Delete leading and trailing silent blocks : No
Null samples used in CRC calculations : Yes
Used interface : Installed external ASPI interface

Used output format : User Defined Encoder
Selected bitrate : 1024 kBit/s
Quality : High
Add ID3 tag : No
Command line compressor : C:\Program Files\FLAC\flac.exe
Additional command line options : -V -8 -T "Date=%year%" -T "Genre=%genre%" -T"COMMENT=Ripped by Ilijan [MeTaLMaDNeSS.TeaM]" -8 -V %source%


TOC of the extracted CD

Track | Start | Length | Start sector | End sector
---------------------------------------------------------
1 | 0:00.00 | 4:21.38 | 0 | 19612
2 | 4:21.38 | 4:31.45 | 19613 | 39982
3 | 8:53.08 | 2:06.59 | 39983 | 49491
4 | 10:59.67 | 5:02.52 | 49492 | 72193
5 | 16:02.44 | 4:49.46 | 72194 | 93914
6 | 20:52.15 | 4:32.67 | 93915 | 114381
7 | 25:25.07 | 4:08.39 | 114382 | 133020
8 | 29:33.46 | 6:05.68 | 133021 | 160463
9 | 35:39.39 | 5:06.25 | 160464 | 183438
10 | 40:45.64 | 6:01.04 | 183439 | 210517
11 | 46:46.68 | 4:34.21 | 210518 | 231088
12 | 51:21.14 | 4:02.65 | 231089 | 249303


Range status and errors

Selected range

Filename D:\Vknish+Devastator+ungern666+deminbek=Swolo4 (Upload On Rutracker+Me-4u, DIE!!!)\Kobra And The Lotus - Prevail II (Japan).wav

Peak level 98.9 %
Extraction speed 4.1 X
Range quality 100.0 %
Test CRC E4879F62
Copy CRC E4879F62
Copy OK

No errors occurred


AccurateRip summary

Track 1 not present in database
Track 2 not present in database
Track 3 not present in database
Track 4 not present in database
Track 5 not present in database
Track 6 not present in database
Track 7 not present in database
Track 8 not present in database
Track 9 not present in database
Track 10 not present in database
Track 11 not present in database
Track 12 not present in database

None of the tracks are present in the AccurateRip database

End of status report

---- CUETools DB Plugin V2.1.6

[CTDB TOCID: d7rdlbapqwe0WOLHkgdfbPnejBg-] disk not present in database
Submit result: d7rdlbapqwe0WOLHkgdfbPnejBg- has been uploaded


==== Log checksum 3B393219164EF898F464BBC9642787E197DC367C92E5FDDDEB7554778CCF191B ====
[свернуть]

Файл CUE

REM GENRE "Heavy Metal"
REM DATE 2018
REM DISCID A20CFC0C
REM COMMENT "ExactAudioCopy v1.3"
PERFORMER "Kobra And The Lotus"
TITLE "Prevail II (Japan)"
FILE "Kobra And The Lotus - Prevail II (Japan).flac" WAVE
TRACK 01 AUDIO
TITLE "Losing My Humanity"
PERFORMER "Kobra And The Lotus"
FLAGS DCP
INDEX 01 00:00:00
TRACK 02 AUDIO
TITLE "Let Me Love You"
PERFORMER "Kobra And The Lotus"
FLAGS DCP
INDEX 01 04:21:38
TRACK 03 AUDIO
TITLE "Ribe"
PERFORMER "Kobra And The Lotus"
FLAGS DCP
INDEX 01 08:53:08
TRACK 04 AUDIO
TITLE "My Immortal"
PERFORMER "Kobra And The Lotus"
FLAGS DCP
INDEX 01 10:59:67
TRACK 05 AUDIO
TITLE "Human Empire"
PERFORMER "Kobra And The Lotus"
FLAGS DCP
INDEX 01 16:02:44
TRACK 06 AUDIO
TITLE "Heartache"
PERFORMER "Kobra And The Lotus"
FLAGS DCP
INDEX 01 20:52:15
TRACK 07 AUDIO
TITLE "Velvet Roses"
PERFORMER "Kobra And The Lotus"
FLAGS DCP
INDEX 01 25:25:07
TRACK 08 AUDIO
TITLE "White Water"
PERFORMER "Kobra And The Lotus"
FLAGS DCP
INDEX 01 29:33:46
TRACK 09 AUDIO
TITLE "You're Insane"
PERFORMER "Kobra And The Lotus"
FLAGS DCP
INDEX 01 35:39:39
TRACK 10 AUDIO
TITLE "Modern Day Hero"
PERFORMER "Kobra And The Lotus"
FLAGS DCP
INDEX 01 40:45:64
TRACK 11 AUDIO
TITLE "Let Me Love You (Bonus Track)"
PERFORMER "Kobra And The Lotus"
FLAGS DCP
INDEX 01 46:46:68
TRACK 12 AUDIO
TITLE "Let Me Love You (Acoustic Version) (Bonus Track)"
PERFORMER "Kobra And The Lotus"
FLAGS DCP
INDEX 01 51:21:14
[свернуть]

Лог проверки качества

-----------------------

DON'T MODIFY THIS FILE

-----------------------

PERFORMER: auCDtect Task Manager, ver. 1.6.0 RC1 build 1.6.0.1
Copyright © 2008-2010 y-soft. All rights reserved
[Ссылки могут видеть только зарегистрированные и активированные пользователи.]
[Only registered and activated users can see links.]

ANALYZER: auCDtect: CD records authenticity detector, version 0.8.2
Copyright © 2004 Oleg Berngardt. All rights reserved.
Copyright © 2004 Alexander Djourik. All rights reserved.


FILE: Kobra And The Lotus - Prevail II (Japan).flac
Size: 404922674 Hash: D5E09CD14990F619BFC41F97D356F711 Accuracy: -m0
Conclusion: CDDA 100%
Signature: 40A4911F0D737105FCF187EBB267F7C076CDA87F
[свернуть]

Скачать Kobra and The Lotus - Prevail II

[Ссылки могут видеть только зарегистрированные и активированные пользователи.]
[Only registered and activated users can see links.]
[свернуть]
Release info RInfo

Вот и пришло время ознакомиться со второй частью интригующей дилогии от амбициозной канадской команды "Kobra аnd The Lotus". В прошлом году группа под предводительством неизменной Бриттани "Кобры" Пейдж продемонстрировала значительные перемены в звучании в пользу более альтернативных аспектов, претерпевая тем самым своего рода эволюцию. "Prevail I" оставил довольно приятные впечатления, доказав, что при правильном подходе можно оставаться достаточно "модным" и в то же время оригинальным.
На "Prevail II" мы можем наблюдать, скажем так, завершающую стадию трансформации. "Kobra аnd The Lotus" окончательно и, похоже, бесповоротно сбросила грубую кожу старомодного хэви и обзавелась блестящей модерн-металлической чешуей. При этом профессионализм музыкантов, а равно впечатляющие вокальные данные лидера команды никуда не делись, а это значит, что работа определенно удалась.
Сиквел не только ощутимо прибавил в мелодичности, но и сохранил монументальность и тяжесть своего предшественника.

Вверх
Пользователь сказал cпасибо:
sergych (09.01.2020)
 
Похожие темы
Тема Автор Раздел Ответов Последнее сообщение
Релиз Thank You Scientist – Stranger Heads Prevail PUPOKIN Progressive Rock 0 25.07.2016 13:30
Релиз Lotus - Lotus PUPOKIN Rock 0 08.09.2011 08:39
VA Lotus Lounge Vol. 1 PUPOKIN Downtempo 0 14.07.2011 09:04
Релиз Delirion - Lotus PUPOKIN Power Metal 0 09.10.2010 09:51
Kataklysm - Prevail ReAl Death Metal 0 04.05.2008 08:32


Метки
2018 , hard rock , heavy metal , kobra and the lotus , modern metal , prevail ii

Опции темы

Ваши права в разделе
Вы не можете создавать новые темы
Вы не можете отвечать в темах
Вы не можете прикреплять вложения
Вы не можете редактировать свои сообщения

Быстрый переход


Текущее время: 09:22. Часовой пояс GMT +3.

© 2008 - 2020 Taifun With Song
Powered by vBulletin® Version 3.8.10
Copyright ©2000 - 2020, vBulletin Solutions, Inc. Перевод: zCarot
При поддержке NIC.UA
Яндекс.Метрика