TAIFUN With Song - качественная и редкая музыка
Навигация
Power Metal Сложилось направление во второй половине 80-х годов XX века в Западной Европе. Отличается более высокой скоростью исполнения, чем «классический» хэви-метал и большей мелодичностью, чем спид-метал.

А знаете ли Вы, что...
Почему в английском хит-параде 1965 года песню ‘Yesterday’ исполняли не Beatles?
«Когда Пол Маккартни записывал песню ‘Yesterday’, профессиональные музыканты из аккомпанирующего ему струнного квартета назвали композицию семитактным неквадратным построением и сказали, что музыку так не пишут.»
 
Опции темы

  #1
Старый 08.01.2020, 19:22
swint68
Релизёр
Досье
 
Аватар для swint68
По умолчанию Follow The Cipher - Follow The Cipher


2018 - Follow The Cipher - Follow The Cipher




Исполнитель/Artist: Follow The Cipher
Альбом/Album: Follow The Cipher
Год/Year: 2018
Жанр/Genre: Modern Metal, Power Metal
Страна/Country: Германия
Рекорд-лейбл/Record label: Nuclear Blast Records
Номер в каталоге/Catalogue #: NB 4344-0
Формат/Format: Free Lossless Audio Codec (*.flac)
Качество/Quality: Lossless
Тип рипа/RIP Type: image+.cue
Продолжительность/Length: 00:45:19
Источник/Source: Ilijan
Размер/Size: 438 MB

Сканы в комплекте

Треклист

01. Enter The Cipher
02. Valkyria
03. My Soldier
04. Winterfall
05. Titan's Call
06. The Rising
07. A Mind's Escape
08. Play With Fire
09. I Revive
10. Starlight
11. Carolus Rex (Sabaton cover)
[свернуть]

Превью на YouTube

[свернуть]

EAC лог

Exact Audio Copy V1.3 from 2. September 2016

EAC extraction logfile from 17. May 2018, 16:06

Follow The Cipher / Follow The Cipher

Used drive : ATAPI iHAS122 W Adapter: 2 ID: 0

Read mode : Secure
Utilize accurate stream : Yes
Defeat audio cache : Yes
Make use of C2 pointers : No

Read offset correction : 48
Overread into Lead-In and Lead-Out : No
Fill up missing offset samples with silence : Yes
Delete leading and trailing silent blocks : No
Null samples used in CRC calculations : Yes
Used interface : Installed external ASPI interface

Used output format : User Defined Encoder
Selected bitrate : 1024 kBit/s
Quality : High
Add ID3 tag : No
Command line compressor : C:\Program Files\FLAC\flac.exe
Additional command line options : -V -8 -T "Date=%year%" -T "Genre=%genre%" -T"COMMENT=Ripped by Ilijan [MeTaLMaDNeSS.TeaM]" -8 -V %source%


TOC of the extracted CD

Track | Start | Length | Start sector | End sector
---------------------------------------------------------
1 | 0:00.00 | 5:20.55 | 0 | 24054
2 | 5:20.55 | 3:53.72 | 24055 | 41601
3 | 9:14.52 | 3:44.64 | 41602 | 58465
4 | 12:59.41 | 3:37.20 | 58466 | 74760
5 | 16:36.61 | 3:40.50 | 74761 | 91310
6 | 20:17.36 | 3:41.30 | 91311 | 107915
7 | 23:58.66 | 4:04.62 | 107916 | 126277
8 | 28:03.53 | 4:27.21 | 126278 | 146323
9 | 32:30.74 | 3:15.16 | 146324 | 160964
10 | 35:46.15 | 4:48.71 | 160965 | 182635
11 | 40:35.11 | 4:44.62 | 182636 | 203997


Range status and errors

Selected range

Filename D:\Vknish+Devastator+ungern666+deminbek=Swolo4 (Upload On Rutracker+Me-4u, DIE!!!)\Follow The Cipher - Follow The Cipher.wav

Peak level 100.0 %
Extraction speed 3.7 X
Range quality 100.0 %
Test CRC 76744ED1
Copy CRC 76744ED1
Copy OK

No errors occurred


AccurateRip summary

Track 1 not present in database
Track 2 not present in database
Track 3 not present in database
Track 4 not present in database
Track 5 not present in database
Track 6 not present in database
Track 7 not present in database
Track 8 not present in database
Track 9 not present in database
Track 10 not present in database
Track 11 not present in database

None of the tracks are present in the AccurateRip database

End of status report

---- CUETools DB Plugin V2.1.6

[CTDB TOCID: qbJNpajeX0BnPDXL.TauDbmPkZE-] found
Submit result: qbJNpajeX0BnPDXL.TauDbmPkZE- has been confirmed
Track | CTDB Status
1 | (3/3) Accurately ripped
2 | (3/3) Accurately ripped
3 | (3/3) Accurately ripped
4 | (3/3) Accurately ripped
5 | (3/3) Accurately ripped
6 | (3/3) Accurately ripped
7 | (3/3) Accurately ripped
8 | (3/3) Accurately ripped
9 | (3/3) Accurately ripped
10 | (3/3) Accurately ripped
11 | (3/3) Accurately ripped


==== Log checksum 3102CF82D6F3A7DEA6D8AF17850EEAB101DA5BA0856FF2DE8261402CE64C20B2 ====
[свернуть]

Файл CUE

REM GENRE "Melodic Death/Power Metal"
REM DATE 2018
REM DISCID 9D0A9F0B
REM COMMENT "ExactAudioCopy v1.3"
PERFORMER "Follow The Cipher"
TITLE "Follow The Cipher"
FILE "Follow The Cipher - Follow The Cipher.flac" WAVE
TRACK 01 AUDIO
TITLE "Enter The Cipher"
PERFORMER "Follow The Cipher"
INDEX 01 00:00:00
TRACK 02 AUDIO
TITLE "Valkyria"
PERFORMER "Follow The Cipher"
INDEX 01 05:20:55
TRACK 03 AUDIO
TITLE "My Soldier"
PERFORMER "Follow The Cipher"
INDEX 01 09:14:52
TRACK 04 AUDIO
TITLE "Winterfall"
PERFORMER "Follow The Cipher"
INDEX 01 12:59:41
TRACK 05 AUDIO
TITLE "Titan's Call"
PERFORMER "Follow The Cipher"
INDEX 01 16:36:61
TRACK 06 AUDIO
TITLE "The Rising"
PERFORMER "Follow The Cipher"
INDEX 01 20:17:36
TRACK 07 AUDIO
TITLE "A Mind's Escape"
PERFORMER "Follow The Cipher"
INDEX 01 23:58:66
TRACK 08 AUDIO
TITLE "Play With Fire"
PERFORMER "Follow The Cipher"
INDEX 01 28:03:53
TRACK 09 AUDIO
TITLE "I Revive"
PERFORMER "Follow The Cipher"
INDEX 01 32:30:74
TRACK 10 AUDIO
TITLE "Starlight"
PERFORMER "Follow The Cipher"
INDEX 01 35:46:15
TRACK 11 AUDIO
TITLE "Carolus Rex (Sabaton Cover)"
PERFORMER "Follow The Cipher"
INDEX 01 40:35:11
[свернуть]

Лог проверки качества

-----------------------

DON'T MODIFY THIS FILE

-----------------------

PERFORMER: auCDtect Task Manager, ver. 1.6.0 RC1 build 1.6.0.1
Copyright (c) 2008-2010 y-soft. All rights reserved
[Ссылки могут видеть только зарегистрированные и активированные пользователи.]
[Only registered and activated users can see links.]

ANALYZER: auCDtect: CD records authenticity detector, version 0.8.2
Copyright (c) 2004 Oleg Berngardt. All rights reserved.
Copyright (c) 2004 Alexander Djourik. All rights reserved.


FILE: Follow The Cipher - Follow The Cipher.flac
Size: 370815583 Hash: A824EE8D9D4384CEA613D32D29B8288D Accuracy: -m0
Conclusion: CDDA 100%
Signature: 15E0E597A1C22CA7FF5A0571DE93D92A99C6C1FB
[свернуть]

Скачать Follow The Cipher - Follow The Cipher

[Ссылки могут видеть только зарегистрированные и активированные пользователи.]
[Only registered and activated users can see links.]
[свернуть]

Вверх
Пользователь сказал cпасибо:
sergych (09.01.2020)
Похожие темы
Тема Автор Раздел Ответов Последнее сообщение
Релиз Unspoken - Follow Through PUPOKIN Pop Rock 0 28.08.2016 14:01
Релиз Mr De' - Follow The Leader 4 PUPOKIN Electro 0 30.12.2013 09:32
Релиз Follow You Home - If It Kills Me PUPOKIN Alternative Rock 0 23.10.2013 10:14
Moshpit - Follow The Loser ReAl Hardcore Rock 0 21.10.2008 18:03
Релиз Depeche Mode - Don't Follow LUСIAN Pop Rock 0 21.04.2008 21:06


Метки
2018 , follow the cipher , modern metal , power metal

Опции темы

Ваши права в разделе
Вы не можете создавать новые темы
Вы не можете отвечать в темах
Вы не можете прикреплять вложения
Вы не можете редактировать свои сообщения

Быстрый переход




Текущее время: 08:23. Часовой пояс GMT +3.
Powered by vBulletin® Version 3.8.10
Copyright ©2000 - 2020, vBulletin Solutions, Inc. Перевод: zCarot
© 2008 - 2020 Taifun With Song
Яндекс.Метрика