TAIFUN With Song - качественная и редкая музыка
Навигация
Thrash Metal Быстрый стремительный темп исполнения метала, скоростные низкочастотные гитарные риффы и высокочастотные соло. Гитарные ритм-партии при исполнении трэш-метала характеризуются приглушением вибрации струн ладонью (англ. palm muting) и стаккато при сильно искажённом звуке, вследствие чего приобретается некое «пыхтящее» звучание.

А знаете ли Вы, что...
Почему песня «Nothing Else Matters» начинается перебором на открытых струнах?
«В начале песни «Nothing Else Matters» группы Metallica слышен перебор на открытых первой, второй, третьей и шестой струнах. Такое композиционное решение появилось благодаря тому, что её автор Джеймс Хэтфилд, когда начинал сочинять песню, одной рукой держал телефонную трубку и разговаривал со своей девушкой.»
 
Опции темы

  #1
Старый 08.01.2020, 09:37
swint68
Релизёр
Досье
 
Аватар для swint68
По умолчанию Exmortus - The Sound Of Steel


2018 - Exmortus - The Sound Of Steel




Исполнитель/Artist: Exmortus
Альбом/Album: The Sound Of Steel
Год/Year: 2018
Жанр/Genre: Thrash Metal, Melodic Death Metal
Страна/Country: Япония
Рекорд-лейбл/Record label: Avalon; Marquee Inc.
Номер в каталоге/Catalogue #: MICP-11419
Формат/Format: Free Lossless Audio Codec (*.flac)
Качество/Quality: Lossless
Тип рипа/RIP Type: image+.cue
Продолжительность/Length: 00:46:35
Источник/Source: Ilijan
Размер/Size: 415 MB

Сканы в комплекте

Треклист

01. Make Haste
02. Feast Of Flesh
03. Into The Maw Of Hell
04. To The Ends Of The Earth
05. A Minor Instrumental
06. Strength and Honor
07. Turn The Tide
08. Tempest
09. Riders Of Doom
10. Victory Or Death!
11. S.A.T.O. (bonus)
[свернуть]

Превью на YouTube

[свернуть]

EAC лог

Exact Audio Copy V1.3 from 2. September 2016

EAC extraction logfile from 5. June 2018, 18:26

Exmortus / The Sound Of Steel (Japan)

Used drive : ATAPI iHAS122 W Adapter: 2 ID: 0

Read mode : Secure
Utilize accurate stream : Yes
Defeat audio cache : Yes
Make use of C2 pointers : No

Read offset correction : 48
Overread into Lead-In and Lead-Out : No
Fill up missing offset samples with silence : Yes
Delete leading and trailing silent blocks : No
Null samples used in CRC calculations : Yes
Used interface : Installed external ASPI interface

Used output format : User Defined Encoder
Selected bitrate : 1024 kBit/s
Quality : High
Add ID3 tag : No
Command line compressor : C:\Program Files\FLAC\flac.exe
Additional command line options : -V -8 -T "Date=%year%" -T "Genre=%genre%" -T"COMMENT=Ripped by Ilijan [MeTaLMaDNeSS.TeaM]" -8 -V %source%


TOC of the extracted CD

Track | Start | Length | Start sector | End sector
---------------------------------------------------------
1 | 0:00.00 | 4:02.72 | 0 | 18221
2 | 4:02.72 | 3:41.30 | 18222 | 34826
3 | 7:44.27 | 4:29.53 | 34827 | 55054
4 | 12:14.05 | 5:49.72 | 55055 | 81301
5 | 18:04.02 | 2:58.60 | 81302 | 94711
6 | 21:02.62 | 4:38.07 | 94712 | 115568
7 | 25:40.69 | 3:57.36 | 115569 | 133379
8 | 29:38.30 | 4:09.34 | 133380 | 152088
9 | 33:47.64 | 4:55.19 | 152089 | 174232
10 | 38:43.08 | 3:43.58 | 174233 | 191015
11 | 42:26.66 | 4:09.06 | 191016 | 209696


Range status and errors

Selected range

Filename D:\Vknish+Devastator+ungern666+deminbek=Swolo4 (Upload On Rutracker, DIE!!!)\Exmortus - The Sound Of Steel (Japan).wav

Peak level 98.8 %
Extraction speed 3.6 X
Range quality 100.0 %
Test CRC D82B9EEA
Copy CRC D82B9EEA
Copy OK

No errors occurred


AccurateRip summary

Track 1 not present in database
Track 2 not present in database
Track 3 not present in database
Track 4 not present in database
Track 5 not present in database
Track 6 not present in database
Track 7 not present in database
Track 8 not present in database
Track 9 not present in database
Track 10 not present in database
Track 11 not present in database

None of the tracks are present in the AccurateRip database

End of status report

---- CUETools DB Plugin V2.1.6

[CTDB TOCID: sUvTGa_H794oK3VmScaBuvKsfpc-] found
Submit result: sUvTGa_H794oK3VmScaBuvKsfpc- has been confirmed
Track | CTDB Status
1 | (2/2) Accurately ripped
2 | (2/2) Accurately ripped
3 | (2/2) Accurately ripped
4 | (2/2) Accurately ripped
5 | (2/2) Accurately ripped
6 | (2/2) Accurately ripped
7 | (2/2) Accurately ripped
8 | (2/2) Accurately ripped
9 | (2/2) Accurately ripped
10 | (2/2) Accurately ripped
11 | (2/2) Accurately ripped


==== Log checksum FE1412620BA536EF69AE18A4093C889D7B94FF6B162865E890F53AF5D3E42D18 ====
[свернуть]

Файл CUE

REM GENRE "Melodic Death/Thrash Metal"
REM DATE 2018
REM DISCID 900AEB0B
REM COMMENT "ExactAudioCopy v1.3"
PERFORMER "Exmortus"
TITLE "The Sound Of Steel (Japan)"
FILE "Exmortus - The Sound Of Steel (Japan).flac" WAVE
TRACK 01 AUDIO
TITLE "Make Haste"
PERFORMER "Exmortus"
INDEX 01 00:00:00
TRACK 02 AUDIO
TITLE "Feast Of Flesh"
PERFORMER "Exmortus"
INDEX 01 04:02:72
TRACK 03 AUDIO
TITLE "Into The Maw Of Hell"
PERFORMER "Exmortus"
INDEX 01 07:44:27
TRACK 04 AUDIO
TITLE "To The Ends Of The Earth"
PERFORMER "Exmortus"
INDEX 01 12:14:05
TRACK 05 AUDIO
TITLE "A Minor Instrumental"
PERFORMER "Exmortus"
INDEX 01 18:04:02
TRACK 06 AUDIO
TITLE "Strength And Honor"
PERFORMER "Exmortus"
INDEX 01 21:02:62
TRACK 07 AUDIO
TITLE "Turn The Tide"
PERFORMER "Exmortus"
INDEX 01 25:40:69
TRACK 08 AUDIO
TITLE "Tempest"
PERFORMER "Exmortus"
INDEX 01 29:38:30
TRACK 09 AUDIO
TITLE "Riders Of Doom"
PERFORMER "Exmortus"
INDEX 01 33:47:64
TRACK 10 AUDIO
TITLE "Victory Or Death!"
PERFORMER "Exmortus"
INDEX 01 38:43:08
TRACK 11 AUDIO
TITLE "S.A.T.O. (Bonus Track)"
PERFORMER "Exmortus"
INDEX 00 42:24:66
INDEX 01 42:26:66
[свернуть]

Лог проверки качества

-----------------------

DON'T MODIFY THIS FILE

-----------------------

PERFORMER: auCDtect Task Manager, ver. 1.6.0 RC1 build 1.6.0.1
Copyright (c) 2008-2010 y-soft. All rights reserved
[Ссылки могут видеть только зарегистрированные и активированные пользователи.]
[Only registered and activated users can see links.]

ANALYZER: auCDtect: CD records authenticity detector, version 0.8.2
Copyright (c) 2004 Oleg Berngardt. All rights reserved.
Copyright (c) 2004 Alexander Djourik. All rights reserved.


FILE: Exmortus - The Sound Of Steel (Japan).flac
Size: 356549529 Hash: C5A769496EDA25E1AE3A54A8A8EED7A7 Accuracy: -m0
Conclusion: CDDA 99%
Signature: 98F880C538C33D9D710C397DDD7103DBB6360D27
[свернуть]

Скачать Exmortus - The Sound Of Steel

[Ссылки могут видеть только зарегистрированные и активированные пользователи.]
[Only registered and activated users can see links.]
[свернуть]

Вверх
Пользователь сказал cпасибо:
sergych (09.01.2020)
 
Похожие темы
Тема Автор Раздел Ответов Последнее сообщение
Релиз Steel Train - Steel Train PUPOKIN Indie Rock 0 08.07.2010 09:48
Журнал "Sound on Sound" - April 2010 Tolich Журналы о музыке и музыкантах 0 09.04.2010 13:20
Релиз Steel Panther - Feel the Steel PUPOKIN Hard Rock 0 01.07.2009 09:52
DJ Steel vs DJ O - Battle Mix 3 Tolich Dance 0 02.09.2008 23:43
Steel Deluxe DarkDan House 0 20.04.2008 17:26


Метки
2018 , exmortus , melodic death metal , the sound of steel , thrash metal

Опции темы

Ваши права в разделе
Вы не можете создавать новые темы
Вы не можете отвечать в темах
Вы не можете прикреплять вложения
Вы не можете редактировать свои сообщения

Быстрый переход


Текущее время: 05:56. Часовой пояс GMT +3.

© 2008 - 2020 Taifun With Song
Powered by vBulletin® Version 3.8.10
Copyright ©2000 - 2020, vBulletin Solutions, Inc. Перевод: zCarot
При поддержке NIC.UA
Яндекс.Метрика