TAIFUN With Song - качественная и редкая музыка
Навигация
А знаете ли Вы, что...
Что поётся в песенке «уно-уно-уно, ун моменто»?
«Песенка «уно-уно-уно, ун моменто» из фильма «Формула любви» кажется написанной на итальянском языке. В действительности её текст представляет собой несвязный набор из итальянских слов, а придуман он был композитором фильма Геннадием Гладковым.»
 
Опции темы

  #1
Старый 15.06.2008, 20:05
sergych
Координатор
Досье
 
Аватар для sergych
Релиз Adriano Celentano - Esco Di Rado E Parlo Ancora Meno

2000 - Esco Di Rado E Parlo Ancora Meno



Исполнитель/Artist: Adriano Celentano
Альбом/Album: Esco Di Rado E Parlo Ancora Meno
Год/Year: 2000
Жанр/Genre: Italo pop / Pop Rock
Формат/Format: mp3 CBR
Качество/Quality: 320 kbps Stereo
Размер/Size: 175.0 MB
Продолжительность/Length: 01:00:37

Треклист

01 - Per Averti
02 - Apri Il Cuore
03 - Lago Rosso
04 - Quello Che Non Ti Ho Detto Mai
05 - Ti Prendero
06 - Tir
07 - Se Tu Mi Senti
08 - Africa
09 - Io Sono Un Uomo Libero
10 - Le Stesse Cose
11 - Il Figlio Del Dolore
12 - Index
[свернуть]

Превью на YouTube

[свернуть]

Скачать mp3

[Ссылки могут видеть только зарегистрированные и активированные пользователи.]
[Only registered and activated users can see links.]

Pass: sergych
[свернуть]

Контрольная сумма (хеш-сумма) архива

MD5: 17042c1148baec3fbc5e5784dec90e0d
[свернуть]
__________________
TAIFUN.Wings of Soul


Последний раз редактировалось sergych, 09.09.2019 в 06:19. Причина: перезаливка с умершего narod.ru
Вверх
  #2
Старый 09.09.2019, 06:36
sergych
Координатор
Досье
 
Аватар для sergych
Релиз Re: Adriano Celentano - Esco Di Rado E Parlo Ancora Meno


2000 - Adriano Celentano - Esco Di Rado E Parlo Ancora Meno




Исполнитель/Artist: Adriano Celentano
Альбом/Album: Esco Di Rado E Parlo Ancora Meno
Год/Year: 2000
Ремастеринг/Remaster: 2011
Жанр/Genre: italiano rock, pop rock
Страна/Country: Россия
Рекорд-лейбл/Record label: Clan Celentano / Universal Music Group
Номер в каталоге/Catalogue #: CLN 2048
Формат/Format: Free Lossless Audio Codec (*.flac)
Качество/Quality: Lossless
Тип рипа/RIP Type: image+.cue
Продолжительность/Length: 01:00:37
Источник/Source: Собственный рип
Размер/Size: 455.6 MB

Сканы в комплекте

Треклист

01. Per Averti [0:05:04.05]
02. Apri Il Cuore [0:05:19.65]
03. Lago Rosso [0:05:18.70]
04. Quello Che Non Ti Ho Detto Mai [0:04:35.02]
05. Ti Prenderò [0:04:55.48]
06. Tir [0:04:29.05]
07. Se Tu Mi Tenti [0:04:14.62]
08. Africa [0:04:36.10]
09. Io Sono Un Uomo Libero [0:05:46.63]
10. Le Stesse Cose [0:05:43.12]
11. Il Figlio Del Dolore [0:06:25.25]
12. Index [0:04:08.03]
[свернуть]

Превью на YouTube

[свернуть]

EAC лог

Exact Audio Copy V1.3 from 2. September 2016

EAC extraction logfile from 6. September 2019, 21:01

Adriano Celentano / Esco Di Rado E Parlo Ancora Meno

Used drive : PIONEER DVD-RW DVR-220L Adapter: 1 ID: 0

Read mode : Secure
Utilize accurate stream : Yes
Defeat audio cache : Yes
Make use of C2 pointers : No

Read offset correction : 6
Overread into Lead-In and Lead-Out : No
Fill up missing offset samples with silence : Yes
Delete leading and trailing silent blocks : No
Null samples used in CRC calculations : Yes
Used interface : Installed external ASPI interface

Used output format : User Defined Encoder
Selected bitrate : 1024 kBit/s
Quality : High
Add ID3 tag : No
Command line compressor : C:\Program Files (x86)\Exact Audio Copy\Flac\flac.exe
Additional command line options : -6 -V -T "ARTIST=%artist%" -T "TITLE=%title%" -T "ALBUM=%albumtitle%" -T "DATE=%year%" -T "TRACKNUMBER=%tracknr%" -T "GENRE=%genre%" -T "COMMENT=%comment%" -T "BAND=%albuminterpret%" -T "ALBUMARTIST=%albuminterpret%" -T "COMPOSER=%composer%" %haslyrics%--tag-from-file=LYRICS="%lyricsfile%"%haslyrics% -T "DISCNUMBER=%cdnumber%" -T "TOTALDISCS=%totalcds%" -T "TOTALTRACKS=%numtracks%" %hascover%--picture="%coverfile%"%hascover% %source% -o %dest%


TOC of the extracted CD

Track | Start | Length | Start sector | End sector
---------------------------------------------------------
1 | 0:00.00 | 5:04.05 | 0 | 22804
2 | 5:04.05 | 5:19.65 | 22805 | 46794
3 | 10:23.70 | 5:18.70 | 46795 | 70714
4 | 15:42.65 | 4:35.02 | 70715 | 91341
5 | 20:17.67 | 4:55.48 | 91342 | 113514
6 | 25:13.40 | 4:29.05 | 113515 | 133694
7 | 29:42.45 | 4:14.62 | 133695 | 152806
8 | 33:57.32 | 4:36.10 | 152807 | 173516
9 | 38:33.42 | 5:46.63 | 173517 | 199529
10 | 44:20.30 | 5:43.12 | 199530 | 225266
11 | 50:03.42 | 6:25.25 | 225267 | 254166
12 | 56:28.67 | 4:08.03 | 254167 | 272769


Range status and errors

Selected range

Filename C:\mm\Adriano Celentano\2000 - Esco Di Rado E Parlo Ancora Meno [CLN 2048]\Adriano Celentano - Esco Di Rado E Parlo Ancora Meno.wav

Peak level 100.0 %
Extraction speed 7.6 X
Range quality 100.0 %
Test CRC 7376724A
Copy CRC 7376724A
Copy OK

No errors occurred


AccurateRip summary

Track 1 cannot be verified as accurate (confidence 23) [C1E48661], AccurateRip returned [888D254F] (AR v2)
Track 2 cannot be verified as accurate (confidence 25) [7F0C517E], AccurateRip returned [732CAA1B] (AR v2)
Track 3 cannot be verified as accurate (confidence 23) [E6178902], AccurateRip returned [A6370790] (AR v2)
Track 4 cannot be verified as accurate (confidence 24) [E8366C0C], AccurateRip returned [BC9B9A75] (AR v2)
Track 5 cannot be verified as accurate (confidence 23) [66657D36], AccurateRip returned [1E05DBA6] (AR v2)
Track 6 cannot be verified as accurate (confidence 24) [2120F665], AccurateRip returned [45074879] (AR v2)
Track 7 cannot be verified as accurate (confidence 24) [5B8F68A8], AccurateRip returned [26441AB9] (AR v2)
Track 8 cannot be verified as accurate (confidence 24) [B1A4077A], AccurateRip returned [D003F8A4] (AR v2)
Track 9 cannot be verified as accurate (confidence 24) [7A074057], AccurateRip returned [08C1D93A] (AR v2)
Track 10 cannot be verified as accurate (confidence 24) [63DF748F], AccurateRip returned [1E5374B6] (AR v2)
Track 11 cannot be verified as accurate (confidence 23) [41D7D6E7], AccurateRip returned [0D1505BB] (AR v2)
Track 12 cannot be verified as accurate (confidence 24) [5D31AB6F], AccurateRip returned [ED3D65DD] (AR v2)

No tracks could be verified as accurate
You may have a different pressing from the one(s) in the database

End of status report
[свернуть]

Файл CUE

REM GENRE Pop
REM DATE 2000
REM DISCID 960E340C
REM COMMENT "ExactAudioCopy v1.3"
PERFORMER "Adriano Celentano"
TITLE "Esco Di Rado E Parlo Ancora Meno"
REM COMPOSER ""
FILE "Adriano Celentano - Esco Di Rado E Parlo Ancora Meno.flac" WAVE
TRACK 01 AUDIO
TITLE "Per Averti"
PERFORMER "Adriano Celentano"
REM COMPOSER ""
INDEX 01 00:00:00
TRACK 02 AUDIO
TITLE "Apri Il Cuore"
PERFORMER "Adriano Celentano"
REM COMPOSER ""
INDEX 01 05:04:05
TRACK 03 AUDIO
TITLE "Lago Rosso"
PERFORMER "Adriano Celentano"
REM COMPOSER ""
INDEX 01 10:23:70
TRACK 04 AUDIO
TITLE "Quello Che Non Ti Ho Detto Mai"
PERFORMER "Adriano Celentano"
REM COMPOSER ""
INDEX 01 15:42:65
TRACK 05 AUDIO
TITLE "Ti Prendero"
PERFORMER "Adriano Celentano"
REM COMPOSER ""
INDEX 01 20:17:67
TRACK 06 AUDIO
TITLE "Tir"
PERFORMER "Adriano Celentano"
REM COMPOSER ""
INDEX 01 25:13:40
TRACK 07 AUDIO
TITLE "Se Tu Mi Tenti"
PERFORMER "Adriano Celentano"
REM COMPOSER ""
INDEX 01 29:42:45
TRACK 08 AUDIO
TITLE "Africa"
PERFORMER "Adriano Celentano"
REM COMPOSER ""
INDEX 01 33:57:32
TRACK 09 AUDIO
TITLE "Io Sono Un Uomo Libero"
PERFORMER "Adriano Celentano"
REM COMPOSER ""
INDEX 01 38:33:42
TRACK 10 AUDIO
TITLE "Le Stesse Cose"
PERFORMER "Adriano Celentano"
REM COMPOSER ""
INDEX 01 44:20:30
TRACK 11 AUDIO
TITLE "Il Figlio Del Dolore"
PERFORMER "Adriano Celentano"
REM COMPOSER ""
INDEX 01 50:03:42
TRACK 12 AUDIO
TITLE "Index"
PERFORMER "Adriano Celentano"
REM COMPOSER ""
INDEX 01 56:28:67
[свернуть]

Лог проверки качества

AUDIOCHECKER v2.0 beta (build 457) - by Dester - [Ссылки могут видеть только зарегистрированные и активированные пользователи.]
[Only registered and activated users can see links.]
~~~~~~~~~~~~~~~~~~~~~~~~~~~~~~~~~~
-=== НЕ РЕДАКТИРУЙТЕ ЭТОТ ФАЙЛ! ===-

Путь: ...\2000 - Esco Di Rado E Parlo Ancora Meno [CLN 2048]

1 -=- Adriano Celentano - Esco Di Rado E Parlo Ancora Meno.flac -=- CDDA (100%)

92579508
[свернуть]

Спектр частот

[свернуть]

Скачать Adriano Celentano - Esco Di Rado E Parlo Ancora Meno

[Ссылки могут видеть только зарегистрированные и активированные пользователи.]
[Only registered and activated users can see links.]

password: sergych
[свернуть]

Контрольная сумма (хеш-сумма) архива

MD5: 5475f4d0e4fadf8abf148630925e024b
[свернуть]
My opinion of release: 10/10
__________________
TAIFUN.Wings of Soul

Вверх
Пользователь сказал cпасибо:
swint68 (10.09.2019)
Похожие темы
Тема Автор Раздел Ответов Последнее сообщение
Альбом Adriano Celentano - Le Robe Che Ha Detto Adriano sergych Зарубежная Поп-Музыка 0 08.04.2009 20:36
Альбом Adriano Celentano - Unicamente Celentano sergych Зарубежная Поп-Музыка 0 27.10.2008 05:22
Альбом Adriano Celentano - Le Volte Che Celentano E Stato 1 sergych Зарубежная Поп-Музыка 0 15.06.2008 20:05
Альбом Adriano Celentano - Uh... Uh... sergych Зарубежная Поп-Музыка 0 14.06.2008 18:17
Adriano Celentano Tolich Видеоклипы 0 22.05.2008 17:31


Метки
adriano celentano , italo pop , pop , pop rock

Опции темы

Ваши права в разделе
Вы не можете создавать новые темы
Вы не можете отвечать в темах
Вы не можете прикреплять вложения
Вы не можете редактировать свои сообщения

Быстрый переход




Текущее время: 08:08. Часовой пояс GMT +3.
Powered by vBulletin® Version 3.8.10
Copyright ©2000 - 2020, vBulletin Solutions, Inc. Перевод: zCarot
© 2008 - 2020 Taifun With Song
Яндекс.Метрика