TAIFUN With Song - качественная и редкая музыка
Навигация
R&B Ссылки на музыку в этом стиле

А знаете ли Вы, что...
Какая группа дала концерты на всех континентах Земли?
«Первой и пока единственной группой, давшей концерты на всех континентах, стала Metallica. В 2013 году коллектив выступил под куполом на аргентинской антарктической исследовательской станции Карлини для аудитории в 120 человек. Уникальность концерта была ещё и в том, что для соблюдения принятых международными соглашениями природоохранных норм в Антарктиде не использовалось усиление звука. Вместо этого он транслировался напрямую в наушники слушателей.»
 
Опции темы

  #1
Старый 27.08.2019, 09:50
sergych
Координатор
Досье
 
Аватар для sergych
Релиз Craig David - Slicker Than Your Average


2002 - Craig David - Slicker Than Your Average




Исполнитель/Artist: Craig David
Альбом/Album: Slicker Than Your Average
Год/Year: 2002
Жанр/Genre: R&B, soul, hip hop, pop
Страна/Country: Европа
Рекорд-лейбл/Record label: Sony Records
Номер в каталоге/Catalogue #: 9 00637 29918 4
Формат/Format: Free Lossless Audio Codec (*.flac)
Качество/Quality: Lossless
Тип рипа/RIP Type: image+.cue
Продолжительность/Length: 00:54:40
Источник/Source: Собственный рип
Размер/Size: 387.7 MB

Сканы в комплекте

Треклист

01. Slicker Than Your Average [0:05:57.63]
02. What's Your Flava [0:03:36.08]
03. Fast Cars [0:04:15.52]
04. Hidden Agenda [0:03:53.53]
05. Eenie Meenie [0:05:04.71]
06. You Don't Miss Your Water [0:05:20.37]
07. Rise And Fall [0:04:47.20]
08. Personal [0:05:24.17]
09. Hands Up In The Air [0:04:05.17]
10. 2 Steps [0:03:48.68]
11. What's Changed [0:04:40.74]
12. World Filled With Love [0:03:44.31]
[свернуть]

Превью на YouTube

[свернуть]

EAC лог

Exact Audio Copy V1.3 from 2. September 2016

EAC extraction logfile from 21. July 2019, 16:18

Craig David / Slicker Than Your Average

Used drive : PIONEER DVD-RW DVR-220L Adapter: 1 ID: 0

Read mode : Secure
Utilize accurate stream : Yes
Defeat audio cache : Yes
Make use of C2 pointers : No

Read offset correction : 6
Overread into Lead-In and Lead-Out : No
Fill up missing offset samples with silence : Yes
Delete leading and trailing silent blocks : No
Null samples used in CRC calculations : Yes
Used interface : Installed external ASPI interface

Used output format : User Defined Encoder
Selected bitrate : 1024 kBit/s
Quality : High
Add ID3 tag : No
Command line compressor : C:\Program Files (x86)\Exact Audio Copy\Flac\flac.exe
Additional command line options : -6 -V -T "ARTIST=%artist%" -T "TITLE=%title%" -T "ALBUM=%albumtitle%" -T "DATE=%year%" -T "TRACKNUMBER=%tracknr%" -T "GENRE=%genre%" -T "COMMENT=%comment%" -T "BAND=%albuminterpret%" -T "ALBUMARTIST=%albuminterpret%" -T "COMPOSER=%composer%" %haslyrics%--tag-from-file=LYRICS="%lyricsfile%"%haslyrics% -T "DISCNUMBER=%cdnumber%" -T "TOTALDISCS=%totalcds%" -T "TOTALTRACKS=%numtracks%" %hascover%--picture="%coverfile%"%hascover% %source% -o %dest%


TOC of the extracted CD

Track | Start | Length | Start sector | End sector
---------------------------------------------------------
1 | 0:00.00 | 5:57.63 | 0 | 26837
2 | 5:57.63 | 3:36.08 | 26838 | 43045
3 | 9:33.71 | 4:15.52 | 43046 | 62222
4 | 13:49.48 | 3:53.53 | 62223 | 79750
5 | 17:43.26 | 5:04.71 | 79751 | 102621
6 | 22:48.22 | 5:20.37 | 102622 | 126658
7 | 28:08.59 | 4:47.20 | 126659 | 148203
8 | 32:56.04 | 5:24.17 | 148204 | 172520
9 | 38:20.21 | 4:05.17 | 172521 | 190912
10 | 42:25.38 | 3:48.68 | 190913 | 208080
11 | 46:14.31 | 4:40.74 | 208081 | 229154
12 | 50:55.30 | 3:44.31 | 229155 | 245985


Range status and errors

Selected range

Filename C:\mm\Craig David\2002 - Slicker Then Your Average [9 00637 29918 4]\Craig David - Slicker Than Your Average.wav

Peak level 100.0 %
Extraction speed 7.1 X
Range quality 99.9 %
Test CRC 33D3EC0C
Copy CRC 33D3EC0C
Copy OK

No errors occurred


AccurateRip summary

Track 1 accurately ripped (confidence 3) [12723A3B] (AR v2)
Track 2 accurately ripped (confidence 3) [559642BA] (AR v2)
Track 3 accurately ripped (confidence 3) [6465BB0D] (AR v2)
Track 4 accurately ripped (confidence 3) [827055A3] (AR v2)
Track 5 accurately ripped (confidence 3) [FF7C1ECD] (AR v2)
Track 6 accurately ripped (confidence 3) [4AA8E087] (AR v2)
Track 7 accurately ripped (confidence 3) [73964F05] (AR v2)
Track 8 accurately ripped (confidence 3) [7EFD839A] (AR v2)
Track 9 accurately ripped (confidence 3) [2C4A99AB] (AR v2)
Track 10 accurately ripped (confidence 3) [72694AE8] (AR v2)
Track 11 accurately ripped (confidence 3) [5CCB7F0D] (AR v2)
Track 12 accurately ripped (confidence 3) [827AE61B] (AR v2)

All tracks accurately ripped

End of status report
[свернуть]

Файл CUE

REM GENRE Pop
REM DATE 2002
REM DISCID AE0CCF0C
REM COMMENT "ExactAudioCopy v1.3"
PERFORMER "Craig David"
TITLE "Slicker Than Your Average"
REM COMPOSER ""
FILE "Craig David - Slicker Than Your Average.flac" WAVE
TRACK 01 AUDIO
TITLE "Slicker Than Your Average"
PERFORMER "Craig David"
REM COMPOSER ""
INDEX 01 00:00:00
TRACK 02 AUDIO
TITLE "What's Your Flava"
PERFORMER "Craig David"
REM COMPOSER ""
INDEX 01 05:57:63
TRACK 03 AUDIO
TITLE "Fast Cars"
PERFORMER "Craig David"
REM COMPOSER ""
INDEX 01 09:33:71
TRACK 04 AUDIO
TITLE "Hidden Agenda"
PERFORMER "Craig David"
REM COMPOSER ""
INDEX 01 13:49:48
TRACK 05 AUDIO
TITLE "Eenie Meenie"
PERFORMER "Craig David"
REM COMPOSER ""
INDEX 01 17:43:26
TRACK 06 AUDIO
TITLE "You Don't Miss Your Water"
PERFORMER "Craig David"
REM COMPOSER ""
INDEX 01 22:48:22
TRACK 07 AUDIO
TITLE "Rise And Fall"
PERFORMER "Craig David"
REM COMPOSER ""
INDEX 01 28:08:59
TRACK 08 AUDIO
TITLE "Personal"
PERFORMER "Craig David"
REM COMPOSER ""
INDEX 01 32:56:04
TRACK 09 AUDIO
TITLE "Hands Up In The Air"
PERFORMER "Craig David"
REM COMPOSER ""
INDEX 01 38:20:21
TRACK 10 AUDIO
TITLE "2 Steps"
PERFORMER "Craig David"
REM COMPOSER ""
INDEX 01 42:25:38
TRACK 11 AUDIO
TITLE "What's Changed"
PERFORMER "Craig David"
REM COMPOSER ""
INDEX 01 46:14:31
TRACK 12 AUDIO
TITLE "World Filled With Love"
PERFORMER "Craig David"
REM COMPOSER ""
INDEX 01 50:55:30
[свернуть]

Лог проверки качества

AUDIOCHECKER v2.0 beta (build 457) - by Dester - [Ссылки могут видеть только зарегистрированные и активированные пользователи.]
[Only registered and activated users can see links.]
~~~~~~~~~~~~~~~~~~~~~~~~~~~~~~~~~~
-=== НЕ РЕДАКТИРУЙТЕ ЭТОТ ФАЙЛ! ===-

Путь: ...\2002 - Slicker Then Your Average [9 00637 29918 4]

1 -=- Craig David - Slicker Than Your Average.flac -=- MPEG (95%)

235964980
[свернуть]

Спектр частот

[свернуть]

Скачать Craig David - Slicker Than Your Average

[Ссылки могут видеть только зарегистрированные и активированные пользователи.]
[Only registered and activated users can see links.]

password: sergych
[свернуть]

Контрольная сумма (хеш-сумма) архива

MD5: ebdfd8517fd647b65e365eb2befab398
[свернуть]
My opinion of release: 8/10
__________________
TAIFUN.Wings of Soul

Вверх
2 пользователя(ей) сказали cпасибо:
johnsilver (05.09.2019), TAIFUN (02.09.2019)
  #2
Старый 05.09.2019, 07:43
TAIFUN
Admin
Досье
 
Аватар для TAIFUN
По умолчанию Re: Craig David - Slicker Than Your Average

Хороший альбом.

My opinion of release: 9/10
__________________
I love music
FAQ по форуму
Правила форума
Жизнь человека - это не самое главное в его жизни...

Вверх
Пользователь сказал cпасибо:
sergych (06.09.2019)
Похожие темы
Тема Автор Раздел Ответов Последнее сообщение
Альбом Craig David - Born To Do It sergych R&B 0 05.12.2017 17:05
Сборник Craig David - Greatest Hits sergych R&B 1 26.10.2017 19:51
Альбом Craig David - The Story Goes... sergych R&B 0 24.08.2017 22:51
Альбом Craig David - Trust Me Alex1990 R&B 1 16.06.2009 12:44


Метки
2002 , craig david , hip hop , pop , r&b , slicker than your average , soul

Опции темы

Ваши права в разделе
Вы не можете создавать новые темы
Вы не можете отвечать в темах
Вы не можете прикреплять вложения
Вы не можете редактировать свои сообщения

Быстрый переход




Текущее время: 03:42. Часовой пояс GMT +3.
Powered by vBulletin® Version 3.8.10
Copyright ©2000 - 2019, vBulletin Solutions, Inc. Перевод: zCarot
© 2008 - 2019 Taifun With Song
Яндекс.Метрика