TAIFUN With Song - качественная и редкая музыка
Навигация
Hard Rock То, что может восприниматься слушателем как «тяжесть» в хард-роке, достигается, в частности, за счет специфического звучания электрогитары (с такими эффектами, как например, дисторшн и овердрайв) и работы ритм-секции. «Классический» хард-рок обрёл формы в конце 1960-х — начале 1970-х годов в Великобритании. Классический хард-рок отличается от хеви-металла более мелодичным звучанием.

А знаете ли Вы, что...
Почему песня «Nothing Else Matters» начинается перебором на открытых струнах?
«В начале песни «Nothing Else Matters» группы Metallica слышен перебор на открытых первой, второй, третьей и шестой струнах. Такое композиционное решение появилось благодаря тому, что её автор Джеймс Хэтфилд, когда начинал сочинять песню, одной рукой держал телефонную трубку и разговаривал со своей девушкой.»
 
Опции темы

  #1
Старый 20.08.2019, 10:05
sergych
Координатор
Досье
 
Аватар для sergych
Релиз Queen - Live Magic


1986 - Queen - Live Magic




Исполнитель/Artist: Queen
Альбом/Album: Live Magic
Год/Year: 1986
Жанр/Genre: Rock, Hard Rock
Страна/Country: Япония
Рекорд-лейбл/Record label: Toshiba-EMI
Номер в каталоге/Catalogue #: CP32-5173
Формат/Format: Free Lossless Audio Codec (*.flac)
Качество/Quality: Lossless
Тип рипа/RIP Type: image+.cue
Продолжительность/Length: 00:47:14
Источник/Source: Собственный рип
Размер/Size: 339.0 MB

Сканы в комплекте

Треклист

01. One Vision [0:05:10.02]
02. Tie Your Mother Down [0:02:59.20]
03. Seven Seas Of Rhye [0:01:21.58]
04. A Kind Of Magic [0:04:46.67]
05. Under Pressure [0:03:48.48]
06. Another One Bites The Dust [0:05:21.60]
07. I Want To Break Free [0:02:40.45]
08. Is This The World We Created? [0:01:49.17]
09. Bohemian Rhapsody [0:04:23.33]
10. Hammer To Fall [0:04:22.50]
11. Radio Ga Ga [0:04:26.70]
12. We Will Rock You [0:01:31.65]
13. Friends Will Be Friends [0:01:10.17]
14. We Are The Champions [0:01:59.15]
15. God Save The Queen [0:01:21.33]
[свернуть]

Превью на YouTube

[свернуть]

Исполнители/Performers

Freddie Mercury - lead vocals, piano
Brian May - guitars, backing vocals
Roger Taylor - drums, backing vocals
John Deacon - bass guitar, backing vocals
Spike Edney - keyboards, guitar, backing vocals
[свернуть]

EAC лог

Exact Audio Copy V1.3 from 2. September 2016

EAC extraction logfile from 17. August 2019, 12:14

Queen / Live Magic

Used drive : PIONEER DVD-RW DVR-220L Adapter: 1 ID: 0

Read mode : Secure
Utilize accurate stream : Yes
Defeat audio cache : Yes
Make use of C2 pointers : No

Read offset correction : 6
Overread into Lead-In and Lead-Out : No
Fill up missing offset samples with silence : Yes
Delete leading and trailing silent blocks : No
Null samples used in CRC calculations : Yes
Used interface : Installed external ASPI interface

Used output format : User Defined Encoder
Selected bitrate : 1024 kBit/s
Quality : High
Add ID3 tag : No
Command line compressor : C:\Program Files (x86)\Exact Audio Copy\Flac\flac.exe
Additional command line options : -6 -V -T "ARTIST=%artist%" -T "TITLE=%title%" -T "ALBUM=%albumtitle%" -T "DATE=%year%" -T "TRACKNUMBER=%tracknr%" -T "GENRE=%genre%" -T "COMMENT=%comment%" -T "BAND=%albuminterpret%" -T "ALBUMARTIST=%albuminterpret%" -T "COMPOSER=%composer%" %haslyrics%--tag-from-file=LYRICS="%lyricsfile%"%haslyrics% -T "DISCNUMBER=%cdnumber%" -T "TOTALDISCS=%totalcds%" -T "TOTALTRACKS=%numtracks%" %hascover%--picture="%coverfile%"%hascover% %source% -o %dest%


TOC of the extracted CD

Track | Start | Length | Start sector | End sector
---------------------------------------------------------
1 | 0:00.00 | 5:10.02 | 0 | 23251
2 | 5:10.02 | 2:59.20 | 23252 | 36696
3 | 8:09.22 | 1:21.58 | 36697 | 42829
4 | 9:31.05 | 4:46.67 | 42830 | 64346
5 | 14:17.72 | 3:48.48 | 64347 | 81494
6 | 18:06.45 | 5:21.60 | 81495 | 105629
7 | 23:28.30 | 2:40.45 | 105630 | 117674
8 | 26:09.00 | 1:49.17 | 117675 | 125866
9 | 27:58.17 | 4:23.33 | 125867 | 145624
10 | 32:21.50 | 4:22.50 | 145625 | 165324
11 | 36:44.25 | 4:26.70 | 165325 | 185344
12 | 41:11.20 | 1:31.65 | 185345 | 192234
13 | 42:43.10 | 1:10.17 | 192235 | 197501
14 | 43:53.27 | 1:59.15 | 197502 | 206441
15 | 45:52.42 | 1:21.33 | 206442 | 212549


Range status and errors

Selected range

Filename C:\mm\Queen\1986(1988) - Live Magic[CP32-5173]\Queen - Live Magic.wav

Peak level 97.6 %
Extraction speed 7.0 X
Range quality 100.0 %
Test CRC 04D6A6BF
Copy CRC 04D6A6BF
Copy OK

No errors occurred


AccurateRip summary

Track 1 accurately ripped (confidence 2) [A00C15F6] (AR v2)
Track 2 accurately ripped (confidence 4) [CC1D6DA0] (AR v2)
Track 3 accurately ripped (confidence 4) [03E7A77A] (AR v2)
Track 4 accurately ripped (confidence 4) [11D1835F] (AR v2)
Track 5 accurately ripped (confidence 4) [5C03BFE6] (AR v2)
Track 6 accurately ripped (confidence 3) [34075118] (AR v2)
Track 7 accurately ripped (confidence 4) [3E815C05] (AR v2)
Track 8 accurately ripped (confidence 4) [25074523] (AR v2)
Track 9 accurately ripped (confidence 4) [A31FAE5B] (AR v2)
Track 10 accurately ripped (confidence 4) [2D229832] (AR v2)
Track 11 accurately ripped (confidence 4) [7A111ECE] (AR v2)
Track 12 accurately ripped (confidence 4) [DF2D3DCE] (AR v2)
Track 13 accurately ripped (confidence 4) [2B28D206] (AR v2)
Track 14 accurately ripped (confidence 4) [D966BD11] (AR v2)
Track 15 accurately ripped (confidence 3) [35587BD3] (AR v2)

All tracks accurately ripped

End of status report
[свернуть]

Файл CUE

REM GENRE Rock
REM DATE 1986
REM DISCID CE0B120F
REM COMMENT "ExactAudioCopy v1.3"
PERFORMER "Queen"
TITLE "Live Magic"
REM COMPOSER ""
FILE "Queen - Live Magic.flac" WAVE
TRACK 01 AUDIO
TITLE "One Vision"
PERFORMER "Queen"
REM COMPOSER ""
INDEX 01 00:00:00
TRACK 02 AUDIO
TITLE "Tie Your Mother Down"
PERFORMER "Queen"
REM COMPOSER ""
INDEX 01 05:10:02
TRACK 03 AUDIO
TITLE "Seven Seas Of Rhye"
PERFORMER "Queen"
REM COMPOSER ""
INDEX 01 08:09:22
TRACK 04 AUDIO
TITLE "A Kind Of Magic"
PERFORMER "Queen"
REM COMPOSER ""
INDEX 01 09:31:05
TRACK 05 AUDIO
TITLE "Under Pressure"
PERFORMER "Queen"
REM COMPOSER ""
INDEX 01 14:17:72
TRACK 06 AUDIO
TITLE "Another One Bites The Dust"
PERFORMER "Queen"
REM COMPOSER ""
INDEX 01 18:06:45
TRACK 07 AUDIO
TITLE "I Want To Break Free"
PERFORMER "Queen"
REM COMPOSER ""
INDEX 00 23:26:60
INDEX 01 23:28:30
TRACK 08 AUDIO
TITLE "Is This The World We Created?"
PERFORMER "Queen"
REM COMPOSER ""
INDEX 01 26:09:00
TRACK 09 AUDIO
TITLE "Bohemian Rhapsody"
PERFORMER "Queen"
REM COMPOSER ""
INDEX 01 27:58:17
TRACK 10 AUDIO
TITLE "Hammer To Fall"
PERFORMER "Queen"
REM COMPOSER ""
INDEX 01 32:21:50
TRACK 11 AUDIO
TITLE "Radio Ga Ga"
PERFORMER "Queen"
REM COMPOSER ""
INDEX 01 36:44:25
TRACK 12 AUDIO
TITLE "We Will Rock You"
PERFORMER "Queen"
REM COMPOSER ""
INDEX 00 41:11:17
INDEX 01 41:11:20
TRACK 13 AUDIO
TITLE "Friends Will Be Friends"
PERFORMER "Queen"
REM COMPOSER ""
INDEX 01 42:43:10
TRACK 14 AUDIO
TITLE "We Are The Champions"
PERFORMER "Queen"
REM COMPOSER ""
INDEX 01 43:53:27
TRACK 15 AUDIO
TITLE "God Save The Queen"
PERFORMER "Queen"
REM COMPOSER ""
INDEX 01 45:52:42
[свернуть]

Лог проверки качества

AUDIOCHECKER v2.0 beta (build 457) - by Dester - [Ссылки могут видеть только зарегистрированные и активированные пользователи.]
[Only registered and activated users can see links.]
~~~~~~~~~~~~~~~~~~~~~~~~~~~~~~~~~~
-=== НЕ РЕДАКТИРУЙТЕ ЭТОТ ФАЙЛ! ===-

Путь: ...\1986(1988) - Live Magic[CP32-5173]

1 -=- Queen - Live Magic.flac -=- MPEG (95%)

91856468
[свернуть]

Спектр частот

[свернуть]

Скачать Queen - Live Magic

[Ссылки могут видеть только зарегистрированные и активированные пользователи.]
[Only registered and activated users can see links.]

password: sergych
[свернуть]

Контрольная сумма (хеш-сумма) архива

MD5: 07af089f4e5ac2f8bf8ec366eb833d2a
[свернуть]
My opinion of release: 10/10

Release info RInfo

Альбом записей с концертных выступлений группы, прошедших в рамках The Magic Tour.
К моему сожалению, я с ними на полтора месяца разминулся отдыхая в Венгрии Ну не было в те годы у советского туриста нынешней свободы в передвижении, выборе времени и маршрута
__________________
TAIFUN.Wings of Soul

Вверх
4 пользователя(ей) сказали cпасибо:
burnett_s (21.08.2019), Guilli (25.08.2019), swint68 (21.08.2019), TAIFUN (20.08.2019)
  #2
Старый 20.08.2019, 14:48
TAIFUN
Admin
Досье
 
Аватар для TAIFUN
По умолчанию Re: Queen - Live Magic

Цитата: Сообщение от sergych Посмотреть сообщение
К моему сожалению, я с ними на полтора месяца разминулся отдыхая в Венгрии Ну не было в те годы у советского туриста нынешней свободы в передвижении, выборе времени и маршрута

Зато сейчас есть свобода, но практически не за кем ездить. (

Вот, на днях, подъезжая к Sandbar услышали, не могли проехать мимо.)

__________________
I love music
FAQ по форуму
Правила форума
Жизнь человека - это не самое главное в его жизни...


Последний раз редактировалось TAIFUN, 22.08.2019 в 07:30.
Вверх
Пользователь сказал cпасибо:
sergych (20.08.2019)
  #3
Старый 20.08.2019, 22:21
sergych
Координатор
Досье
 
Аватар для sergych
По умолчанию Re: Queen - Live Magic

TAIFUN,
вы снова в тёплые стран отчалили? На последних кадрах не супруга ли с дочуркой?
__________________
TAIFUN.Wings of Soul

Вверх
Пользователь сказал cпасибо:
TAIFUN (22.08.2019)
  #4
Старый 22.08.2019, 07:31
TAIFUN
Admin
Досье
 
Аватар для TAIFUN
По умолчанию Re: Queen - Live Magic

sergych, уже давненько тут.))
Да, они самые.)
__________________
I love music
FAQ по форуму
Правила форума
Жизнь человека - это не самое главное в его жизни...

Вверх
Похожие темы
Тема Автор Раздел Ответов Последнее сообщение
Live Queen - Live At the Rainbow '74 sergych Hard Rock 0 29.10.2016 17:16
Альбом Queen - A Kind Of Magic sergych Hard Rock 1 26.10.2016 10:08
Live Queen - Live At Wembley'86 sergych Hard Rock 0 09.05.2016 14:48
Live George Michael and Queen with Lisa Stansfield - Five Live sergych Pop Rock 0 11.04.2014 17:50
Релиз Queen - Rock You From Rio - Live RRock-melomanXP Hard Rock 0 04.04.2010 13:50


Метки
1986 , hard rock , live magic , queen , rock

Опции темы

Ваши права в разделе
Вы не можете создавать новые темы
Вы не можете отвечать в темах
Вы не можете прикреплять вложения
Вы не можете редактировать свои сообщения

Быстрый переход




Текущее время: 03:50. Часовой пояс GMT +3.
Powered by vBulletin® Version 3.8.10
Copyright ©2000 - 2019, vBulletin Solutions, Inc. Перевод: zCarot
© 2008 - 2019 Taifun With Song
Яндекс.Метрика