TAIFUN With Song - качественная и редкая музыка
Навигация
Вернуться   TAIFUN With Song - качественная и редкая музыка > Music (обменник) > Rock > Punk Rock
Расширенный поиск
Punk Rock Для композиций панк-рока в целом свойственны быстрый темп, иногда — небольшая продолжительность по времени, простой аккомпанемент, развязная и зачастую агрессивная манера пения. Тексты панк-рок-групп как правило нигилистичны, иногда в них делается упор на социальные проблемы. Нередко панк-рок-группы имеют эпатажный имидж.

А знаете ли Вы, что...
Какой музыкальный инструмент извлекает звуки из сталактитов одной американской пещеры?
«В американском штате Вирджиния находятся Лурейские пещеры, где установлен уникальный музыкальный инструмент — орган из сталактитов. 37 разных по тону сталактитов подключены к трубочной системе традиционного органа и управляются с обычной органной клавиатуры.»
 
Опции темы

  #1
Старый 16.10.2011, 18:42
RRock-melomanXP
Друг форума
Досье
 
Аватар для RRock-melomanXP
По умолчанию Хуй Забей - Ходить по земле


2011 - Хуй Забей - Ходить по земле




Исполнитель/Artist: Хуй Забей
Альбом/Album: Ходить по земле
Год/Year: 2011
Жанр/Genre: Punk
Страна/Country: Россия
Формат/Format: MPEG Layer-3 (*.mp3)
Качество/Quality: CBR 320 kbps
Тип рипа/RIP Type: tracks
Продолжительность/Length: 00:50:55
Источник/Source: Из интернета
Размер/Size: 115 MB


Треклист

1. Если срут
2. Подружить
3. Трофейной
4. Конвертация
5. За колечко
6. Косметичка
7. Отклонение
8. Мечты
9. Помоюсь
10. Малинка
11. Банально
12. Акценты
13. Отставь
14. Уже
15. Переходи
16. Как наши прадеды
17. Сапогом в *бло
18. Гардемарин
19. Самое ху*вое моё
20. Рокировочку
21. Не прёт
22. С ладошки
23. НЛО
24. Классифицировал
25. От беды
26. Звери
27. Остановлен
28. На место
29. Без спешки
30. Снежный ком
31. А я ведь так любил
32. Уши
33. Все средства
34. Ходить по земле
35. Частухи
[свернуть]

Исполнители/Performers

Бегемот, Карабас, Алексей Заев а так же:
Дима Добрый - гитара
Марья Искусница - вокал
Иван Рахманов - гитара
Инна Цехановская - вокал
Алексей Медведев - гитара
Алексей Глызин - вокал
Сергей Щёткин - гитара
Анатолий Теренжев - вокал
Маша Логофет - скрипка
Аня Киселёва - вокал
Дмитрий Шинаков - баян
Даша - вокал
Александр Караваев - волынка, low whistle
Мила Ягудина - вокал
Вадим Кириченко - саксофон
Ольга Пушкина - вокал
Александр Дмитриев - труба, тромбон
Кирилл Немоляев - вокал
Алексей Аштаев - клавишные
Кирилл Паренчук - барабаны, перкуссия
Валерий Таманов - мастеринг
Андрей Панкратов - бас, вокал
Неоценимая помощь - Влад Афанасов
Александр Михеев - гитара
Андрей Близнюк “Лысый” - бас, вокал
* - песни группы "Сибирский Мастурбатор"
Памяти Алексея Заева посвящается.
[свернуть]

EAC лог

Exact Audio Copy V1.0 beta 3 from 29. August 2011
Отчёт EAC об извлечении, выполненном 16. октября 2011, 15:34
Хуй Забей / Ходить по земле
Дисковод: Optiarc DVD RW AD-7173S Adapter: 3 ID: 0
Режим чтения : Достоверность
Использование точного потока : Да
Отключение кэша аудио : Да
Использование указателей C2 : Нет
Коррекция смещения при чтении : 48
Способность читать области Lead-in и Lead-out : Да
Заполнение пропущенных сэмплов тишиной : Да
Удаление блоков с тишиной в начале и конце : Нет
При вычислениях CRC использовались нулевые сэмплы : Да
Интерфейс : Установленный внешний ASPI-интерфейс
Обработка зазоров : Не обнаружено, добавлено к предыдущему треку
Выходной формат : MP3: LAME
Выбранный битрейт : 320 kBit/s
Качество : Высокий
Добавление ID3-тега : Да
Утилита сжатия : D:\data\закачки\lame3.98.4-64\lame.exe
TOC извлечённого CD
Трек | Старт | Длительность | Начальный сектор | Конечный сектор
---------------------------------------------------------------------
1 | 0:00.00 | 1:09.39 | 0 | 5213
2 | 1:09.39 | 1:09.39 | 5214 | 10427
3 | 2:19.03 | 1:43.29 | 10428 | 18181
4 | 4:02.32 | 1:29.69 | 18182 | 24925
5 | 5:32.26 | 1:10.02 | 24926 | 30177
6 | 6:42.28 | 0:48.01 | 30178 | 33778
7 | 7:30.29 | 1:25.01 | 33779 | 40154
8 | 8:55.30 | 1:29.54 | 40155 | 46883
9 | 10:25.09 | 0:31.31 | 46884 | 49239
10 | 10:56.40 | 0:48.07 | 49240 | 52846
11 | 11:44.47 | 1:27.69 | 52847 | 59440
12 | 13:12.41 | 1:12.05 | 59441 | 64845
13 | 14:24.46 | 1:02.00 | 64846 | 69495
14 | 15:26.46 | 1:07.04 | 69496 | 74524
15 | 16:33.50 | 0:47.74 | 74525 | 78123
16 | 17:21.49 | 1:27.06 | 78124 | 84654
17 | 18:48.55 | 2:28.61 | 84655 | 95815
18 | 21:17.41 | 1:19.74 | 95816 | 101814
19 | 22:37.40 | 0:41.33 | 101815 | 104922
20 | 23:18.73 | 1:22.17 | 104923 | 111089
21 | 24:41.15 | 1:04.54 | 111090 | 115943
22 | 25:45.69 | 1:24.40 | 115944 | 122283
23 | 27:10.34 | 1:48.55 | 122284 | 130438
24 | 28:59.14 | 1:15.32 | 130439 | 136095
25 | 30:14.46 | 1:27.10 | 136096 | 142630
26 | 31:41.56 | 0:46.30 | 142631 | 146110
27 | 32:28.11 | 0:25.59 | 146111 | 148044
28 | 32:53.70 | 0:55.53 | 148045 | 152222
29 | 33:49.48 | 3:23.04 | 152223 | 167451
30 | 37:12.52 | 1:03.42 | 167452 | 172218
31 | 38:16.19 | 2:19.53 | 172219 | 182696
32 | 40:35.72 | 0:58.23 | 182697 | 187069
33 | 41:34.20 | 0:45.24 | 187070 | 190468
34 | 42:19.44 | 2:35.23 | 190469 | 202116
35 | 44:54.67 | 6:00.35 | 202117 | 229151
Трек 1
Имя файла G:\2011. Хуй Забей . Ходить по земле MP3\01. Если срут - Хуй Забей.wav
Пиковый уровень 96.9 %
Скорость извлечения 1.6 X
Качество трека 100.0 %
CRC теста 0C43EA13
CRC копии 0C43EA13
Копирование... OK
Трек 2
Имя файла G:\2011. Хуй Забей . Ходить по земле MP3\02. Подружить - Хуй Забей.wav
Пиковый уровень 97.0 %
Скорость извлечения 2.6 X
Качество трека 100.0 %
CRC теста 7E351927
CRC копии 7E351927
Копирование... OK
Трек 3
Имя файла G:\2011. Хуй Забей . Ходить по земле MP3\03. Трофейной - Хуй Забей.wav
Пиковый уровень 97.0 %
Скорость извлечения 3.8 X
Качество трека 100.0 %
CRC теста 5C464990
CRC копии 5C464990
Копирование... OK
Трек 4
Имя файла G:\2011. Хуй Забей . Ходить по земле MP3\04. Конвертация - Хуй Забей.wav
Пиковый уровень 97.0 %
Скорость извлечения 3.8 X
Качество трека 100.0 %
CRC теста BD835801
CRC копии BD835801
Копирование... OK
Трек 5
Имя файла G:\2011. Хуй Забей . Ходить по земле MP3\05. За колечко - Хуй Забей.wav
Пиковый уровень 97.0 %
Скорость извлечения 2.7 X
Качество трека 99.8 %
CRC теста A5EB51B7
CRC копии A5EB51B7
Копирование... OK
Трек 6
Имя файла G:\2011. Хуй Забей . Ходить по земле MP3\06. Косметичка - Хуй Забей.wav
Пиковый уровень 97.0 %
Скорость извлечения 3.1 X
Качество трека 100.0 %
CRC теста FE235A89
CRC копии FE235A89
Копирование... OK
Трек 7
Имя файла G:\2011. Хуй Забей . Ходить по земле MP3\07. Отклонение - Хуй Забей.wav
Пиковый уровень 97.7 %
Скорость извлечения 3.1 X
Качество трека 99.8 %
CRC теста 325F04E0
CRC копии 325F04E0
Копирование... OK
Трек 8
Имя файла G:\2011. Хуй Забей . Ходить по земле MP3\08. Мечты - Хуй Забей.wav
Пиковый уровень 97.0 %
Скорость извлечения 4.2 X
Качество трека 100.0 %
CRC теста 43AF2CA8
CRC копии 43AF2CA8
Копирование... OK
Трек 9
Имя файла G:\2011. Хуй Забей . Ходить по земле MP3\09. Помоюсь - Хуй Забей.wav
Пиковый уровень 96.9 %
Скорость извлечения 2.7 X
Качество трека 100.0 %
CRC теста 31224EA9
CRC копии 31224EA9
Копирование... OK
Трек 10
Имя файла G:\2011. Хуй Забей . Ходить по земле MP3\10. Малинка - Хуй Забей.wav
Пиковый уровень 97.0 %
Скорость извлечения 2.4 X
Качество трека 99.7 %
CRC теста 6AAC4DB7
CRC копии 6AAC4DB7
Копирование... OK
Трек 11
Имя файла G:\2011. Хуй Забей . Ходить по земле MP3\11. Банально - Хуй Забей.wav
Пиковый уровень 97.0 %
Скорость извлечения 4.4 X
Качество трека 100.0 %
CRC теста AC66C03B
CRC копии AC66C03B
Копирование... OK
Трек 12
Имя файла G:\2011. Хуй Забей . Ходить по земле MP3\12. Акценты - Хуй Забей.wav
Пиковый уровень 97.1 %
Скорость извлечения 3.2 X
Качество трека 99.8 %
CRC теста 840B544C
CRC копии 840B544C
Копирование... OK
Трек 13
Имя файла G:\2011. Хуй Забей . Ходить по земле MP3\13. Отставь - Хуй Забей.wav
Пиковый уровень 97.0 %
Скорость извлечения 4.1 X
Качество трека 100.0 %
CRC теста 26921188
CRC копии 26921188
Копирование... OK
Трек 14
Имя файла G:\2011. Хуй Забей . Ходить по земле MP3\14. Уже - Хуй Забей.wav
Пиковый уровень 97.0 %
Скорость извлечения 3.1 X
Качество трека 99.8 %
CRC теста 5A0AA5BB
CRC копии 5A0AA5BB
Копирование... OK
Трек 15
Имя файла G:\2011. Хуй Забей . Ходить по земле MP3\15. Переходи - Хуй Забей.wav
Пиковый уровень 97.0 %
Скорость извлечения 3.8 X
Качество трека 100.0 %
CRC теста A0176034
CRC копии A0176034
Копирование... OK
Трек 16
Имя файла G:\2011. Хуй Забей . Ходить по земле MP3\16. Как наши прадеды - Хуй Забей.wav
Пиковый уровень 97.6 %
Скорость извлечения 4.8 X
Качество трека 100.0 %
CRC теста 0EC34B03
CRC копии 0EC34B03
Копирование... OK
Трек 17
Имя файла G:\2011. Хуй Забей . Ходить по земле MP3\17. Сапогом в ебло - Хуй Забей.wav
Пиковый уровень 97.0 %
Скорость извлечения 5.7 X
Качество трека 100.0 %
CRC теста 22A18F03
CRC копии 22A18F03
Копирование... OK
Трек 18
Имя файла G:\2011. Хуй Забей . Ходить по земле MP3\18. Гардемарин - Хуй Забей.wav
Пиковый уровень 97.0 %
Скорость извлечения 3.8 X
Качество трека 99.8 %
CRC теста AC6A26B0
CRC копии AC6A26B0
Копирование... OK
Трек 19
Имя файла G:\2011. Хуй Забей . Ходить по земле MP3\19. Самое хуёвое моё - Хуй Забей.wav
Пиковый уровень 97.0 %
Скорость извлечения 3.8 X
Качество трека 100.0 %
CRC теста 488FD52C
CRC копии 488FD52C
Копирование... OK
Трек 20
Имя файла G:\2011. Хуй Забей . Ходить по земле MP3\20. Рокировочку - Хуй Забей.wav
Пиковый уровень 97.0 %
Скорость извлечения 5.1 X
Качество трека 100.0 %
CRC теста 78188813
CRC копии 78188813
Копирование... OK
Трек 21
Имя файла G:\2011. Хуй Забей . Ходить по земле MP3\21. Не прёт - Хуй Забей.wav
Пиковый уровень 97.0 %
Скорость извлечения 3.5 X
Качество трека 99.8 %
CRC теста DD75D0C4
CRC копии DD75D0C4
Копирование... OK
Трек 22
Имя файла G:\2011. Хуй Забей . Ходить по земле MP3\22. С ладошки - Хуй Забей.wav
Пиковый уровень 97.0 %
Скорость извлечения 5.3 X
Качество трека 100.0 %
CRC теста 9EC0C181
CRC копии 9EC0C181
Копирование... OK
Трек 23
Имя файла G:\2011. Хуй Забей . Ходить по земле MP3\23. НЛО - Хуй Забей.wav
Пиковый уровень 97.0 %
Скорость извлечения 5.8 X
Качество трека 100.0 %
CRC теста 8A577569
CRC копии 8A577569
Копирование... OK
Трек 24
Имя файла G:\2011. Хуй Забей . Ходить по земле MP3\24. Классифицировал - Хуй Забей.wav
Пиковый уровень 97.0 %
Скорость извлечения 5.4 X
Качество трека 100.0 %
CRC теста 1D5D6715
CRC копии 1D5D6715
Копирование... OK
Трек 25
Имя файла G:\2011. Хуй Забей . Ходить по земле MP3\25. От беды - Хуй Забей.wav
Пиковый уровень 97.0 %
Скорость извлечения 5.6 X
Качество трека 100.0 %
CRC теста 6EE5BD22
CRC копии 6EE5BD22
Копирование... OK
Трек 26
Имя файла G:\2011. Хуй Забей . Ходить по земле MP3\26. Звери - Хуй Забей.wav
Пиковый уровень 97.0 %
Скорость извлечения 4.5 X
Качество трека 100.0 %
CRC теста 3610F0AC
CRC копии 3610F0AC
Копирование... OK
Трек 27
Имя файла G:\2011. Хуй Забей . Ходить по земле MP3\27. Остановлен - Хуй Забей.wav
Пиковый уровень 97.0 %
Скорость извлечения 3.3 X
Качество трека 100.0 %
CRC теста AD917C61
CRC копии AD917C61
Копирование... OK
Трек 28
Имя файла G:\2011. Хуй Забей . Ходить по земле MP3\28. На место - Хуй Забей.wav
Пиковый уровень 97.0 %
Скорость извлечения 4.9 X
Качество трека 100.0 %
CRC теста D4C70A2E
CRC копии D4C70A2E
Копирование... OK
Трек 29
Имя файла G:\2011. Хуй Забей . Ходить по земле MP3\29. Без спешки - Хуй Забей.wav
Пиковый уровень 97.0 %
Скорость извлечения 7.2 X
Качество трека 100.0 %
CRC теста 318F29A5
CRC копии 318F29A5
Копирование... OK
Трек 30
Имя файла G:\2011. Хуй Забей . Ходить по земле MP3\30. Снежный ком - Хуй Забей.wav
Пиковый уровень 97.0 %
Скорость извлечения 5.4 X
Качество трека 100.0 %
CRC теста EEF0A83F
CRC копии EEF0A83F
Копирование... OK
Трек 31
Имя файла G:\2011. Хуй Забей . Ходить по земле MP3\31. А я ведь так любил - Хуй Забей.wav
Пиковый уровень 96.9 %
Скорость извлечения 6.9 X
Качество трека 100.0 %
CRC теста 77C9AEBF
CRC копии 77C9AEBF
Копирование... OK
Трек 32
Имя файла G:\2011. Хуй Забей . Ходить по земле MP3\32. Уши - Хуй Забей.wav
Пиковый уровень 97.0 %
Скорость извлечения 5.4 X
Качество трека 100.0 %
CRC теста 0E9F5C76
CRC копии 0E9F5C76
Копирование... OK
Трек 33
Имя файла G:\2011. Хуй Забей . Ходить по земле MP3\33. Все средства - Хуй Забей.wav
Пиковый уровень 91.8 %
Скорость извлечения 4.9 X
Качество трека 100.0 %
CRC теста 8008139A
CRC копии 8008139A
Копирование... OK
Трек 34
Имя файла G:\2011. Хуй Забей . Ходить по земле MP3\34. Ходить по земле - Хуй Забей.wav
Пиковый уровень 97.0 %
Скорость извлечения 7.2 X
Качество трека 100.0 %
CRC теста 1E59B5A1
CRC копии 1E59B5A1
Копирование... OK
Трек 35
Имя файла G:\2011. Хуй Забей . Ходить по земле MP3\35. Частухи - Хуй Забей.wav
Подозрительная позиция 0:06:00
Пиковый уровень 97.0 %
Скорость извлечения 9.0 X
Качество трека 99.9 %
CRC теста EBEE48E7
CRC копии EBEE48E7
Копирование завершено
Были ошибки
Конец отчёта
---- CUETools DB Plugin V2.1.3
[CTDB TOCID: EBSyACh1OOvuSafwPxC6agyyYSU-] found, Submit result: EBSyACh1OOvuSafwPxC6agyyYSU- has been uploaded
[ee30b179] (2/2) Differs in 4153 samples @50:55:06-50:55:14
You can use CUETools to repair this rip.
==== Контрольная сумма отчёта ED97F716CBCBF4AF22C39819A3E7A03327C19DC8DF47B1D06AA2C5A6523C6DC4 ====
[свернуть]

Скачать Хуй Забей - Ходить по земле

[Ссылки могут видеть только зарегистрированные и активированные пользователи.]
[Only registered and activated users can see links.]
[свернуть]

Контрольная сумма (хеш-сумма) архива

MD5: cbaf53d0fcd8e1677388bff088875c62
[свернуть]
Release info RInfo

«Хуй забей» — советская/российская авангардная панк-группа, которую основали в 1989 году школьные друзья «Бигимот» и «Карабас». Ансамбль исполняет панк-рок с нецензурными шуточными текстами, в значительной степени состоящими из мата.
До определённого времени тайно, под псевдонимом «Марья Искусница», в записях группы принимала участие певица Марина Хлебникова. В телепроекте «Неголубой огонёк-2» Хлебникова и группа (названная ХЗ) исполнили песню «Талалихин».
Группой Аквариум у ХЗ была позаимствована в репертуар песня «Подмога»; также на одном из концертов БГ исполнил песню «Талалихин».
В записях ряда альбомов коллектива участвовал Найк Борзов.
__________________
Будь интерактивным, будь с нами, поддержи рок-движение в России, слушай рок-музыку!!!


Последний раз редактировалось TAIFUN, 22.08.2019 в 20:37. Причина: Переоформление + перезалив
Вверх
  #2
Старый 22.08.2019, 21:22
TAIFUN
Admin
Досье
 
Аватар для TAIFUN
По умолчанию Хуй Забей - Ходить по земле


2011 - Хуй Забей - Ходить по земле




Исполнитель/Artist: Хуй Забей
Альбом/Album: Ходить по земле
Год/Year: 2011
Жанр/Genre: Punk
Страна/Country: Россия
Формат/Format: Free Lossless Audio Codec (*.flac)
Качество/Quality: Lossless
Тип рипа/RIP Type: image+.cue
Продолжительность/Length: 00:50:55
Источник/Source: Из интернета
Размер/Size: 358 MB


Треклист

1. Если срут
2. Подружить
3. Трофейной
4. Конвертация
5. За колечко
6. Косметичка
7. Отклонение
8. Мечты
9. Помоюсь
10. Малинка
11. Банально
12. Акценты
13. Отставь
14. Уже
15. Переходи
16. Как наши прадеды
17. Сапогом в *бло
18. Гардемарин
19. Самое ху*вое моё
20. Рокировочку
21. Не прёт
22. С ладошки
23. НЛО
24. Классифицировал
25. От беды
26. Звери
27. Остановлен
28. На место
29. Без спешки
30. Снежный ком
31. А я ведь так любил
32. Уши
33. Все средства
34. Ходить по земле
35. Частухи
[свернуть]

Исполнители/Performers

Бегемот, Карабас, Алексей Заев а так же:
Дима Добрый - гитара
Марья Искусница - вокал
Иван Рахманов - гитара
Инна Цехановская - вокал
Алексей Медведев - гитара
Алексей Глызин - вокал
Сергей Щёткин - гитара
Анатолий Теренжев - вокал
Маша Логофет - скрипка
Аня Киселёва - вокал
Дмитрий Шинаков - баян
Даша - вокал
Александр Караваев - волынка, low whistle
Мила Ягудина - вокал
Вадим Кириченко - саксофон
Ольга Пушкина - вокал
Александр Дмитриев - труба, тромбон
Кирилл Немоляев - вокал
Алексей Аштаев - клавишные
Кирилл Паренчук - барабаны, перкуссия
Валерий Таманов - мастеринг
Андрей Панкратов - бас, вокал
Неоценимая помощь - Влад Афанасов
Александр Михеев - гитара
Андрей Близнюк “Лысый” - бас, вокал
* - песни группы "Сибирский Мастурбатор"
Памяти Алексея Заева посвящается.
[свернуть]

EAC лог

Exact Audio Copy V1.0 beta 3 from 29. August 2011
Отчёт EAC об извлечении, выполненном 17. октября 2011, 12:45
Хуй Забей / Ходить по земле
Дисковод: Optiarc DVD RW AD-7173S Adapter: 3 ID: 0
Режим чтения : Достоверность
Использование точного потока : Да
Отключение кэша аудио : Да
Использование указателей C2 : Нет
Коррекция смещения при чтении : 48
Способность читать области Lead-in и Lead-out : Нет
Заполнение пропущенных сэмплов тишиной : Да
Удаление блоков с тишиной в начале и конце : Нет
При вычислениях CRC использовались нулевые сэмплы : Да
Интерфейс : Установленный внешний ASPI-интерфейс
Выходной формат : Пользовательский кодировщик
Выбранный битрейт : 768 kBit/s
Качество : Высокий
Добавление ID3-тега : Нет
Утилита сжатия : C:\Program Files (x86)\Exact Audio Copy\FLAC\FLAC.EXE
Дополнительные параметры : -V -8 %source%
TOC извлечённого CD
Трек | Старт | Длительность | Начальный сектор | Конечный сектор
---------------------------------------------------------------------
1 | 0:00.00 | 1:09.39 | 0 | 5213
2 | 1:09.39 | 1:09.39 | 5214 | 10427
3 | 2:19.03 | 1:43.29 | 10428 | 18181
4 | 4:02.32 | 1:29.69 | 18182 | 24925
5 | 5:32.26 | 1:10.02 | 24926 | 30177
6 | 6:42.28 | 0:48.01 | 30178 | 33778
7 | 7:30.29 | 1:25.01 | 33779 | 40154
8 | 8:55.30 | 1:29.54 | 40155 | 46883
9 | 10:25.09 | 0:31.31 | 46884 | 49239
10 | 10:56.40 | 0:48.07 | 49240 | 52846
11 | 11:44.47 | 1:27.69 | 52847 | 59440
12 | 13:12.41 | 1:12.05 | 59441 | 64845
13 | 14:24.46 | 1:02.00 | 64846 | 69495
14 | 15:26.46 | 1:07.04 | 69496 | 74524
15 | 16:33.50 | 0:47.74 | 74525 | 78123
16 | 17:21.49 | 1:27.06 | 78124 | 84654
17 | 18:48.55 | 2:28.61 | 84655 | 95815
18 | 21:17.41 | 1:19.74 | 95816 | 101814
19 | 22:37.40 | 0:41.33 | 101815 | 104922
20 | 23:18.73 | 1:22.17 | 104923 | 111089
21 | 24:41.15 | 1:04.54 | 111090 | 115943
22 | 25:45.69 | 1:24.40 | 115944 | 122283
23 | 27:10.34 | 1:48.55 | 122284 | 130438
24 | 28:59.14 | 1:15.32 | 130439 | 136095
25 | 30:14.46 | 1:27.10 | 136096 | 142630
26 | 31:41.56 | 0:46.30 | 142631 | 146110
27 | 32:28.11 | 0:25.59 | 146111 | 148044
28 | 32:53.70 | 0:55.53 | 148045 | 152222
29 | 33:49.48 | 3:23.04 | 152223 | 167451
30 | 37:12.52 | 1:03.42 | 167452 | 172218
31 | 38:16.19 | 2:19.53 | 172219 | 182696
32 | 40:35.72 | 0:58.23 | 182697 | 187069
33 | 41:34.20 | 0:45.24 | 187070 | 190468
34 | 42:19.44 | 2:35.23 | 190469 | 202116
35 | 44:54.67 | 6:00.35 | 202117 | 229151
Характеристики диапазона извлечения и сообщения об ошибках
Выбранный диапазон
Имя файла G:\Хуй Забей. 2011 Ходить по земле_nnm\Хуй Забей - Ходить по земле.wav
Пиковый уровень 97.7 %
Скорость извлечения 4.9 X
Качество диапазона 99.9 %
CRC теста DC406998
CRC копии DC406998
Копирование... OK
Ошибок не произошло
Конец отчёта
---- CUETools DB Plugin V2.1.3
[CTDB TOCID: EBSyACh1OOvuSafwPxC6agyyYSU-] found, Submit result: already submitted
[239cd6bd] (1/3) Differs in 4153 samples @50:55:06-50:55:14
[ee30b179] (2/3) Accurately ripped
You can use CUETools to repair this rip.
==== Контрольная сумма отчёта 549D17F188A4EDB20AC026A714EFD8EA0641D757EBD81CF8B1A2A6545D284EC7 ====
[свернуть]

Файл CUE

REM DATE 2011
REM DISCID E90BEF23
REM COMMENT "ExactAudioCopy v1.0b3"
PERFORMER "Хуй Забей"
TITLE "Ходить по земле"
FILE "Хуй Забей - Ходить по земле.flac" WAVE
TRACK 01 AUDIO
TITLE "Если срут"
PERFORMER "Хуй Забей"
INDEX 01 00:00:00
TRACK 02 AUDIO
TITLE "Подружить"
PERFORMER "Хуй Забей"
INDEX 00 01:09:36
INDEX 01 01:09:39
TRACK 03 AUDIO
TITLE "Трофейной"
PERFORMER "Хуй Забей"
INDEX 00 02:18:18
INDEX 01 02:19:03
TRACK 04 AUDIO
TITLE "Конвертация"
PERFORMER "Хуй Забей"
INDEX 00 04:01:48
INDEX 01 04:02:32
TRACK 05 AUDIO
TITLE "За колечко"
PERFORMER "Хуй Забей"
INDEX 00 05:31:56
INDEX 01 05:32:26
TRACK 06 AUDIO
TITLE "Косметичка"
PERFORMER "Хуй Забей"
INDEX 00 06:40:46
INDEX 01 06:42:28
TRACK 07 AUDIO
TITLE "Отклонение"
PERFORMER "Хуй Забей"
INDEX 00 07:29:65
INDEX 01 07:30:29
TRACK 08 AUDIO
TITLE "Мечты"
PERFORMER "Хуй Забей"
INDEX 00 08:54:66
INDEX 01 08:55:30
TRACK 09 AUDIO
TITLE "Помоюсь"
PERFORMER "Хуй Забей"
INDEX 00 10:24:07
INDEX 01 10:25:09
TRACK 10 AUDIO
TITLE "Малинка"
PERFORMER "Хуй Забей"
INDEX 00 10:56:06
INDEX 01 10:56:40
TRACK 11 AUDIO
TITLE "Банально"
PERFORMER "Хуй Забей"
INDEX 00 11:43:65
INDEX 01 11:44:47
TRACK 12 AUDIO
TITLE "Акценты"
PERFORMER "Хуй Забей"
INDEX 00 13:11:58
INDEX 01 13:12:41
TRACK 13 AUDIO
TITLE "Отставь"
PERFORMER "Хуй Забей"
INDEX 00 14:23:62
INDEX 01 14:24:46
TRACK 14 AUDIO
TITLE "Уже"
PERFORMER "Хуй Забей"
INDEX 00 15:26:09
INDEX 01 15:26:46
TRACK 15 AUDIO
TITLE "Переходи"
PERFORMER "Хуй Забей"
INDEX 00 16:33:03
INDEX 01 16:33:50
TRACK 16 AUDIO
TITLE "Как наши прадеды"
PERFORMER "Хуй Забей"
INDEX 00 17:21:20
INDEX 01 17:21:49
TRACK 17 AUDIO
TITLE "Сапогом в ебло"
PERFORMER "Хуй Забей"
INDEX 00 18:48:19
INDEX 01 18:48:55
TRACK 18 AUDIO
TITLE "Гардемарин"
PERFORMER "Хуй Забей"
INDEX 00 21:16:49
INDEX 01 21:17:41
TRACK 19 AUDIO
TITLE "Самое хуёвое моё"
PERFORMER "Хуй Забей"
INDEX 00 22:36:12
INDEX 01 22:37:40
TRACK 20 AUDIO
TITLE "Рокировочку"
PERFORMER "Хуй Забей"
INDEX 00 23:18:51
INDEX 01 23:18:73
TRACK 21 AUDIO
TITLE "Не прёт"
PERFORMER "Хуй Забей"
INDEX 00 24:40:57
INDEX 01 24:41:15
TRACK 22 AUDIO
TITLE "С ладошки"
PERFORMER "Хуй Забей"
INDEX 00 25:44:70
INDEX 01 25:45:69
TRACK 23 AUDIO
TITLE "НЛО"
PERFORMER "Хуй Забей"
INDEX 00 27:09:49
INDEX 01 27:10:34
TRACK 24 AUDIO
TITLE "Классифицировал"
PERFORMER "Хуй Забей"
INDEX 00 28:58:61
INDEX 01 28:59:14
TRACK 25 AUDIO
TITLE "От беды"
PERFORMER "Хуй Забей"
INDEX 00 30:13:56
INDEX 01 30:14:46
TRACK 26 AUDIO
TITLE "Звери"
PERFORMER "Хуй Забей"
INDEX 00 31:40:37
INDEX 01 31:41:56
TRACK 27 AUDIO
TITLE "Остановлен"
PERFORMER "Хуй Забей"
INDEX 00 32:27:29
INDEX 01 32:28:11
TRACK 28 AUDIO
TITLE "На место"
PERFORMER "Хуй Забей"
INDEX 00 32:52:25
INDEX 01 32:53:70
TRACK 29 AUDIO
TITLE "Без спешки"
PERFORMER "Хуй Забей"
INDEX 00 33:48:65
INDEX 01 33:49:48
TRACK 30 AUDIO
TITLE "Снежный ком"
PERFORMER "Хуй Забей"
INDEX 00 37:11:26
INDEX 01 37:12:52
TRACK 31 AUDIO
TITLE "А я ведь так любил"
PERFORMER "Хуй Забей"
INDEX 00 38:15:52
INDEX 01 38:16:19
TRACK 32 AUDIO
TITLE "Уши"
PERFORMER "Хуй Забей"
INDEX 00 40:35:07
INDEX 01 40:35:72
TRACK 33 AUDIO
TITLE "Все средства"
PERFORMER "Хуй Забей"
INDEX 00 41:32:73
INDEX 01 41:34:20
TRACK 34 AUDIO
TITLE "Ходить по земле"
PERFORMER "Хуй Забей"
INDEX 00 42:19:14
INDEX 01 42:19:44
TRACK 35 AUDIO
TITLE "Частухи"
PERFORMER "Хуй Забей"
INDEX 00 44:42:32
INDEX 01 44:54:67
[свернуть]

Лог проверки качества

---- CUETools DB Plugin V2.1.3
[CTDB TOCID: EBSyACh1OOvuSafwPxC6agyyYSU-] found, Submit result: already submitted
[239cd6bd] (1/3) Differs in 4153 samples @50:55:06-50:55:14
[ee30b179] (2/3) Accurately ripped
You can use CUETools to repair this rip.
==== Контрольная сумма отчёта 549D17F188A4EDB20AC026A714EFD8EA0641D757EBD81CF8B1A2A6545D284EC7 ====
[свернуть]

Спектр частот

[свернуть]

Скачать Хуй Забей - Ходить по земле

[Ссылки могут видеть только зарегистрированные и активированные пользователи.]
[Only registered and activated users can see links.]
[свернуть]

Контрольная сумма (хеш-сумма) архива

MD5: b1111142faf4c16587fe62da7499c8ea
[свернуть]
Release info RInfo

«Хуй забей» — советская/российская авангардная панк-группа, которую основали в 1989 году школьные друзья «Бигимот» и «Карабас». Ансамбль исполняет панк-рок с нецензурными шуточными текстами, в значительной степени состоящими из мата.
До определённого времени тайно, под псевдонимом «Марья Искусница», в записях группы принимала участие певица Марина Хлебникова. В телепроекте «Неголубой огонёк-2» Хлебникова и группа (названная ХЗ) исполнили песню «Талалихин».
Группой Аквариум у ХЗ была позаимствована в репертуар песня «Подмога»; также на одном из концертов БГ исполнил песню «Талалихин».
В записях ряда альбомов коллектива участвовал Найк Борзов.

Вверх
Пользователь сказал cпасибо:
sergych (25.08.2019)
Похожие темы
Тема Автор Раздел Ответов Последнее сообщение
HD Тараканы! - Самый счастливый человек на Земле RRock-melomanXP Видеоклипы 0 10.02.2014 17:33
Релиз Рабфак - Забей! PUPOKIN Шансон 0 07.11.2013 08:16
Релиз Х*й Забей - Вскрытие покажет (2012) RRock-melomanXP Punk Rock 0 02.05.2012 01:23
Релиз Жанна Агузарова - Последний Концерт На Земле PUPOKIN Русская Поп-Музыка 0 11.05.2010 08:53


Метки
2011 , punk rock , ходить по земле , хуй забей

Опции темы

Ваши права в разделе
Вы не можете создавать новые темы
Вы не можете отвечать в темах
Вы не можете прикреплять вложения
Вы не можете редактировать свои сообщения

Быстрый переход




Текущее время: 04:02. Часовой пояс GMT +3.
Powered by vBulletin® Version 3.8.10
Copyright ©2000 - 2019, vBulletin Solutions, Inc. Перевод: zCarot
© 2008 - 2019 Taifun With Song
Яндекс.Метрика