TAIFUN With Song - качественная и редкая музыка
Навигация
Jazz и Blues Гибкая ритмика, импровизационное начало, гармонии и мелодии - все это Jazz. Blues - жизнеутверждающая музыка, рожденная из душевной боли

А знаете ли Вы, что...
Кто написал песню «Во поле берёза стояла»?
«Многие источники утверждают, что песню «Во поле берёза стояла» написал татарский поэт Нигмат Ибрагимов. Однако эта песня всё-таки является русской народной.»
 
Опции темы

  #1
Старый 08.03.2019, 09:30
sergych
Координатор
Досье
 
Аватар для sergych
Релиз David Benoit - Standards


2006 - David Benoit - Standards




Исполнитель/Artist: David Benoit
Альбом/Album: Standards
Год/Year: 2006
Жанр/Genre: Jazz Fusion, Smooth Jazz
Страна/Country: Италия
Рекорд-лейбл/Record label: Kind of Blue
Номер в каталоге/Catalogue #: KOB 10009
Формат/Format: Free Lossless Audio Codec (*.flac)
Качество/Quality: Lossless
Тип рипа/RIP Type: image+.cue
Продолжительность/Length: 00:52:11
Источник/Source: Собственный рип
Размер/Size: 321.6 MB

Сканы в комплекте

Треклист

01. Brothers go to Mothers (Mancini) [0:05:14.17]
02. Cute (Hefti) [0:04:02.11]
03. Django (Lewis) [0:06:03.64]
04. Blue Rondo a la Turk (Brubeck) [0:04:13.32]
05. Some Other Time (Bernstein) [0:04:42.06]
06. Cakewalk (Peterson) [0:04:59.37]
07. Stardust (Carmichael) [0:06:04.32]
08. Straight No Chaser (Monk) [0:04:07.22]
09. I Loves You Porgy (Gershwin, Gershwin) [0:05:16.61]
10. Waltz For Debby (Evans) [0:07:27.01]
[свернуть]

Превью на YouTube

[свернуть]

Исполнители/Performers

David Benoit -piano
Brian Bromberg - bass
Gregg Bissonette - drums
[свернуть]

EAC лог

Exact Audio Copy V1.3 from 2. September 2016

EAC extraction logfile from 7. March 2019, 12:40

David Benoit / Standards

Used drive : PIONEER DVD-RW DVR-220L Adapter: 1 ID: 0

Read mode : Secure
Utilize accurate stream : Yes
Defeat audio cache : Yes
Make use of C2 pointers : No

Read offset correction : 6
Overread into Lead-In and Lead-Out : No
Fill up missing offset samples with silence : Yes
Delete leading and trailing silent blocks : No
Null samples used in CRC calculations : Yes
Used interface : Installed external ASPI interface

Used output format : User Defined Encoder
Selected bitrate : 1024 kBit/s
Quality : High
Add ID3 tag : No
Command line compressor : C:\Program Files (x86)\Exact Audio Copy\Flac\flac.exe
Additional command line options : -6 -V -T "ARTIST=%artist%" -T "TITLE=%title%" -T "ALBUM=%albumtitle%" -T "DATE=%year%" -T "TRACKNUMBER=%tracknr%" -T "GENRE=%genre%" -T "COMMENT=%comment%" -T "BAND=%albuminterpret%" -T "ALBUMARTIST=%albuminterpret%" -T "COMPOSER=%composer%" %haslyrics%--tag-from-file=LYRICS="%lyricsfile%"%haslyrics% -T "DISCNUMBER=%cdnumber%" -T "TOTALDISCS=%totalcds%" -T "TOTALTRACKS=%numtracks%" %hascover%--picture="%coverfile%"%hascover% %source% -o %dest%


TOC of the extracted CD

Track | Start | Length | Start sector | End sector
---------------------------------------------------------
1 | 0:00.00 | 5:14.17 | 0 | 23566
2 | 5:14.17 | 4:02.11 | 23567 | 41727
3 | 9:16.28 | 6:03.64 | 41728 | 69016
4 | 15:20.17 | 4:13.32 | 69017 | 88023
5 | 19:33.49 | 4:42.06 | 88024 | 109179
6 | 24:15.55 | 4:59.37 | 109180 | 131641
7 | 29:15.17 | 6:04.32 | 131642 | 158973
8 | 35:19.49 | 4:07.22 | 158974 | 177520
9 | 39:26.71 | 5:16.61 | 177521 | 201281
10 | 44:43.57 | 7:27.01 | 201282 | 234807


Range status and errors

Selected range

Filename C:\mm\David Benoit\2006 - Standards [KOB 10009]\David Benoit - Standards.wav

Peak level 97.7 %
Extraction speed 7.3 X
Range quality 99.9 %
Test CRC 30D89E04
Copy CRC 30D89E04
Copy OK

No errors occurred


AccurateRip summary

Track 1 accurately ripped (confidence 21) [34915E7A] (AR v2)
Track 2 accurately ripped (confidence 21) [AB29BE79] (AR v2)
Track 3 accurately ripped (confidence 21) [B5503E73] (AR v2)
Track 4 accurately ripped (confidence 21) [FEAB5DE0] (AR v2)
Track 5 accurately ripped (confidence 21) [B01E5399] (AR v2)
Track 6 accurately ripped (confidence 21) [3CAE25E7] (AR v2)
Track 7 accurately ripped (confidence 21) [333D7E88] (AR v2)
Track 8 accurately ripped (confidence 21) [4FCD12BA] (AR v2)
Track 9 accurately ripped (confidence 21) [803E00BC] (AR v2)
Track 10 accurately ripped (confidence 21) [86894546] (AR v2)

All tracks accurately ripped

End of status report
[свернуть]

Файл CUE

REM GENRE Jazz
REM DATE 2006
REM DISCID 8C0C3A0A
REM COMMENT "ExactAudioCopy v1.3"
PERFORMER "David Benoit"
TITLE "Standards"
REM COMPOSER ""
FILE "David Benoit - Standards.flac" WAVE
TRACK 01 AUDIO
TITLE "Brothers go to Mothers (Mancini)"
PERFORMER "David Benoit"
REM COMPOSER ""
INDEX 01 00:00:00
TRACK 02 AUDIO
TITLE "Cute (Hefti)"
PERFORMER "David Benoit"
REM COMPOSER ""
INDEX 00 05:12:17
INDEX 01 05:14:17
TRACK 03 AUDIO
TITLE "Django (Lewis)"
PERFORMER "David Benoit"
REM COMPOSER ""
INDEX 00 09:14:28
INDEX 01 09:16:28
TRACK 04 AUDIO
TITLE "Blue Rondo a la Turk (Brubeck)"
PERFORMER "David Benoit"
REM COMPOSER ""
INDEX 00 15:18:17
INDEX 01 15:20:17
TRACK 05 AUDIO
TITLE "Some Other Time (Bernstein)"
PERFORMER "David Benoit"
REM COMPOSER ""
INDEX 00 19:31:49
INDEX 01 19:33:49
TRACK 06 AUDIO
TITLE "Cakewalk (Peterson)"
PERFORMER "David Benoit"
REM COMPOSER ""
INDEX 00 24:13:55
INDEX 01 24:15:55
TRACK 07 AUDIO
TITLE "Stardust (Carmichael)"
PERFORMER "David Benoit"
REM COMPOSER ""
INDEX 00 29:13:17
INDEX 01 29:15:17
TRACK 08 AUDIO
TITLE "Straight No Chaser (Monk)"
PERFORMER "David Benoit"
REM COMPOSER ""
INDEX 00 35:17:49
INDEX 01 35:19:49
TRACK 09 AUDIO
TITLE "I Loves You Porgy (Gershwin, Gershwin)"
PERFORMER "David Benoit"
REM COMPOSER ""
INDEX 00 39:24:71
INDEX 01 39:26:71
TRACK 10 AUDIO
TITLE "Waltz For Debby (Evans)"
PERFORMER "David Benoit"
REM COMPOSER ""
INDEX 00 44:41:57
INDEX 01 44:43:57
[свернуть]

Лог проверки качества

AUDIOCHECKER v2.0 beta (build 457) - by Dester - [Ссылки могут видеть только зарегистрированные и активированные пользователи.]
[Only registered and activated users can see links.]
~~~~~~~~~~~~~~~~~~~~~~~~~~~~~~~~~~
-=== НЕ РЕДАКТИРУЙТЕ ЭТОТ ФАЙЛ! ===-

Путь: ...\2006 - Standards [KOB 10009]

1 -=- David Benoit - Standards.flac -=- CDDA (99%)

66973716
[свернуть]

Спектр частот

[свернуть]

Скачать David Benoit - Standards

[Ссылки могут видеть только зарегистрированные и активированные пользователи.]
[Only registered and activated users can see links.]

password: sergych
[свернуть]

Контрольная сумма (хеш-сумма) архива

MD5: e3ad896f2f16d83d6ecf00ae36c72ef1
[свернуть]
My opinion of release: 9/10
__________________
TAIFUN.Wings of Soul

Вверх
Пользователь сказал cпасибо:
TAIFUN (10.03.2019)
Похожие темы
Тема Автор Раздел Ответов Последнее сообщение
Сборник Oscar Peterson - Standards sergych Jazz и Blues 1 26.06.2018 18:15
Альбом David Benoit - Earthglow sergych Jazz и Blues 0 10.08.2016 22:52
Сборник David Benoit ‎– Jazz For Peanuts (A Retrospective Of The Charlie Brown TV Themes) sergych Jazz и Blues 0 06.08.2016 17:24
Альбом David Benoit & Russ Freeman - The Benoit / Freeman Project 2 sergych Jazz и Blues 0 10.05.2015 17:18
Альбом David Benoit & Russ Freeman - The Benoit / Freeman Project sergych Jazz и Blues 1 11.04.2014 17:05


Метки
2006 , david benoit , jazz fusion , smooth jazz , standards

Опции темы

Ваши права в разделе
Вы не можете создавать новые темы
Вы не можете отвечать в темах
Вы не можете прикреплять вложения
Вы не можете редактировать свои сообщения

Быстрый переход




Текущее время: 03:42. Часовой пояс GMT +3.
Powered by vBulletin® Version 3.8.10
Copyright ©2000 - 2019, vBulletin Solutions, Inc. Перевод: zCarot
© 2008 - 2019 Taifun With Song
Яндекс.Метрика