TAIFUN With Song - качественная и редкая музыка
Навигация
Hard Rock То, что может восприниматься слушателем как «тяжесть» в хард-роке, достигается, в частности, за счет специфического звучания электрогитары (с такими эффектами, как например, дисторшн и овердрайв) и работы ритм-секции. «Классический» хард-рок обрёл формы в конце 1960-х — начале 1970-х годов в Великобритании. Классический хард-рок отличается от хеви-металла более мелодичным звучанием.

А знаете ли Вы, что...
Хобби Альберта Эйнштейна!
«Эйнштейн любил играть на скрипке и однажды принял участие в благотворительном концерте в Германии.»
 
Опции темы

  #1
Старый 25.11.2016, 18:38
sergych
Координатор
Досье
 
Аватар для sergych
Релиз ZZ Top - Afterburner


1985 - ZZ Top - Afterburner




Исполнитель/Artist: ZZ Top
Альбом/Album: Afterburner
Год/Year: 1985
Жанр/Genre: Hard Rock, Blues Rock
Страна/Country: Германия
Рекорд-лейбл/Record label: Warner Bros.
Номер в каталоге/Catalogue #: 7599-25342-2
Формат/Format: Free Lossless Audio Codec (*.flac)
Качество/Quality: Lossless
Тип рипа/RIP Type: image+.cue
Продолжительность/Length: 00:37:35
Источник/Source: Собственный рип
Размер/Size: 279 MB

Сканы в комплекте

Треклист

01. Sleeping Bag [0:04:07.05]
02. Stages [0:03:35.02]
03. Woke Up With Wood [0:03:49.48]
04. Rough Boy [0:04:52.27]
05. Can't Stop Rockin' [0:03:04.33]
06. Planet Of Women [0:04:06.55]
07. I Got The Message [0:03:30.25]
08. Velcro Fly [0:03:32.55]
09. Dipping Low (In The Lap Of Luxury) [0:03:15.02]
10. Delirious [0:03:41.45]
[свернуть]

youtube.com

[свернуть]

Исполнители/Performers

Billy Gibbons – guitar, lead (1-4, 6-9) and backing vocals
Dusty Hill – bass guitar, backing and lead (5, 10) vocals, keyboards
Frank Beard – drums
[свернуть]

EAC лог

Exact Audio Copy V1.2 from 12. August 2016

EAC extraction logfile from 25. November 2016, 0:31

ZZ Top / Afterburner

Used drive : ATAPI iHAS124 D Adapter: 1 ID: 0

Read mode : Secure
Utilize accurate stream : Yes
Defeat audio cache : Yes
Make use of C2 pointers : No

Read offset correction : 6
Overread into Lead-In and Lead-Out : No
Fill up missing offset samples with silence : Yes
Delete leading and trailing silent blocks : No
Null samples used in CRC calculations : Yes
Used interface : Native Win32 interface for Win NT & 2000

Used output format : User Defined Encoder
Selected bitrate : 1024 kBit/s
Quality : High
Add ID3 tag : No
Command line compressor : C:\Program Files (x86)\Exact Audio Copy\FLAC\FLAC.EXE
Additional command line options : -6 -V -T "ARTIST=%artist%" -T "TITLE=%title%" -T "ALBUM=%albumtitle%" -T "DATE=%year%" -T "TRACKNUMBER=%tracknr%" -T "GENRE=%genre%" -T "COMMENT=%comment%" -T "BAND=%albuminterpret%" -T "ALBUMARTIST=%albuminterpret%" -T "COMPOSER=%composer%" %haslyrics%--tag-from-file=LYRICS="%lyricsfile%"%haslyrics% -T "DISCNUMBER=%cdnumber%" -T "TOTALDISCS=%totalcds%" -T "TOTALTRACKS=%numtracks%" %hascover%--picture="%coverfile%"%hascover% %source% -o %dest%


TOC of the extracted CD

Track | Start | Length | Start sector | End sector
---------------------------------------------------------
1 | 0:00.00 | 4:07.05 | 0 | 18529
2 | 4:07.05 | 3:35.02 | 18530 | 34656
3 | 7:42.07 | 3:49.48 | 34657 | 51879
4 | 11:31.55 | 4:52.27 | 51880 | 73806
5 | 16:24.07 | 3:04.33 | 73807 | 87639
6 | 19:28.40 | 4:06.55 | 87640 | 106144
7 | 23:35.20 | 3:30.25 | 106145 | 121919
8 | 27:05.45 | 3:32.55 | 121920 | 137874
9 | 30:38.25 | 3:15.02 | 137875 | 152501
10 | 33:53.27 | 3:41.45 | 152502 | 169121


Range status and errors

Selected range

Filename C:\mm\ZZ Top\1985 - Afterburner [7599-25342-2]\ZZ Top - Afterburner.wav

Peak level 97.5 %
Extraction speed 7.6 X
Range quality 99.9 %
Test CRC 680439F5
Copy CRC 680439F5
Copy OK

No errors occurred


AccurateRip summary

Track 1 accurately ripped (confidence 92) [E4C31034] (AR v2)
Track 2 accurately ripped (confidence 93) [4EED26CC] (AR v2)
Track 3 accurately ripped (confidence 93) [E0D3CCE2] (AR v2)
Track 4 accurately ripped (confidence 93) [86975099] (AR v2)
Track 5 accurately ripped (confidence 93) [88D92FB8] (AR v2)
Track 6 accurately ripped (confidence 94) [7D2A780C] (AR v2)
Track 7 accurately ripped (confidence 94) [EA24384A] (AR v2)
Track 8 accurately ripped (confidence 94) [F5247A6A] (AR v2)
Track 9 accurately ripped (confidence 94) [8D1A66EE] (AR v2)
Track 10 accurately ripped (confidence 93) [82907062] (AR v2)

All tracks accurately ripped

End of status report

---- CUETools DB Plugin V2.1.6

[CTDB TOCID: 4QUuKZAiWluTPw0x4mKISPlrONY-] found
Submit result: 4QUuKZAiWluTPw0x4mKISPlrONY- has been confirmed, 4QUuKZAiWluTPw0x4mKISPlrONY- has been confirmed
Track | CTDB Status
1 | (1188/1200) Accurately ripped
2 | (1191/1200) Accurately ripped
3 | (1192/1200) Accurately ripped
4 | (1190/1200) Accurately ripped
5 | (1191/1200) Accurately ripped
6 | (1188/1200) Accurately ripped
7 | (1191/1200) Accurately ripped
8 | (1191/1200) Accurately ripped
9 | (1188/1200) Accurately ripped
10 | (1189/1200) Accurately ripped
[свернуть]

Файл CUE

REM GENRE Rock
REM DATE 1985
REM DISCID 8508CE0A
REM COMMENT "ExactAudioCopy v1.2"
PERFORMER "ZZ Top"
TITLE "Afterburner"
REM COMPOSER ""
FILE "ZZ Top - Afterburner.flac" WAVE
TRACK 01 AUDIO
TITLE "Sleeping Bag"
PERFORMER "ZZ Top"
REM COMPOSER ""
INDEX 01 00:00:00
TRACK 02 AUDIO
TITLE "Stages"
PERFORMER "ZZ Top"
REM COMPOSER ""
INDEX 00 04:03:00
INDEX 01 04:07:05
TRACK 03 AUDIO
TITLE "Woke Up With Wood"
PERFORMER "ZZ Top"
REM COMPOSER ""
INDEX 00 07:39:07
INDEX 01 07:42:07
TRACK 04 AUDIO
TITLE "Rough Boy"
PERFORMER "ZZ Top"
REM COMPOSER ""
INDEX 00 11:27:47
INDEX 01 11:31:55
TRACK 05 AUDIO
TITLE "Can't Stop Rockin'"
PERFORMER "ZZ Top"
REM COMPOSER ""
INDEX 00 16:20:62
INDEX 01 16:24:07
TRACK 06 AUDIO
TITLE "Planet Of Women"
PERFORMER "ZZ Top"
REM COMPOSER ""
INDEX 00 19:25:52
INDEX 01 19:28:40
TRACK 07 AUDIO
TITLE "I Got The Message"
PERFORMER "ZZ Top"
REM COMPOSER ""
INDEX 00 23:31:25
INDEX 01 23:35:20
TRACK 08 AUDIO
TITLE "Velcro Fly"
PERFORMER "ZZ Top"
REM COMPOSER ""
INDEX 00 27:03:15
INDEX 01 27:05:45
TRACK 09 AUDIO
TITLE "Dipping Low (In The Lap Of Luxury)"
PERFORMER "ZZ Top"
REM COMPOSER ""
INDEX 00 30:34:47
INDEX 01 30:38:25
TRACK 10 AUDIO
TITLE "Delirious"
PERFORMER "ZZ Top"
REM COMPOSER ""
INDEX 00 33:49:37
INDEX 01 33:53:27
[свернуть]

Лог проверки качества

AUDIOCHECKER v2.0 beta (build 457) - by Dester - [Ссылки могут видеть только зарегистрированные и активированные пользователи.]
[Only registered and activated users can see links.]
~~~~~~~~~~~~~~~~~~~~~~~~~~~~~~~~~~
-=== НЕ РЕДАКТИРУЙТЕ ЭТОТ ФАЙЛ! ===-

Путь: ...\1985 - Afterburner [7599-25342-2]

1 -=- ZZ Top - Afterburner.flac -=- MPEG (95%)

49029364
[свернуть]

Спектр частот

[свернуть]

Скачать ZZ Top - Afterburner

[Ссылки могут видеть только зарегистрированные и активированные пользователи.]
[Only registered and activated users can see links.]

password: sergych
[свернуть]

Контрольная сумма (хеш-сумма) архива

MD5: cb771d2c89bbb6babd249babddcc57c2
[свернуть]
My opinion of release: 10/10
__________________
TAIFUN.Wings of Soul

Вверх
3 пользователя(ей) сказали cпасибо:
Guilli (28.05.2019), Lighting1981 (10.03.2017), swint68 (26.11.2016)
 

Метки
1985 , afterburner , blues rock , hard rock , zz top

Опции темы

Ваши права в разделе
Вы не можете создавать новые темы
Вы не можете отвечать в темах
Вы не можете прикреплять вложения
Вы не можете редактировать свои сообщения

Быстрый переход


Текущее время: 06:14. Часовой пояс GMT +3.

© 2008 - 2020 Taifun With Song
Powered by vBulletin® Version 3.8.10
Copyright ©2000 - 2020, vBulletin Solutions, Inc. Перевод: zCarot
При поддержке NIC.UA
Яндекс.Метрика