TAIFUN With Song - качественная и редкая музыка
Навигация
Вернуться   TAIFUN With Song - качественная и редкая музыка > Music (обменник) > Rock > Hard Rock
Расширенный поиск
Hard Rock То, что может восприниматься слушателем как «тяжесть» в хард-роке, достигается, в частности, за счет специфического звучания электрогитары (с такими эффектами, как например, дисторшн и овердрайв) и работы ритм-секции. «Классический» хард-рок обрёл формы в конце 1960-х — начале 1970-х годов в Великобритании. Классический хард-рок отличается от хеви-металла более мелодичным звучанием.

А знаете ли Вы, что...
Чья кровь применялась при печати комиксов?
«Участники группы KISS для раскрутки первого комикса о себе сдали кровь и смешали её с красными чернилами в издающей комикс типографии.»
 
Опции темы

  #1
Старый 02.12.2014, 18:21
sergych
Координатор
Досье
 
Аватар для sergych
Релиз Various Artists - Top Musicians Play Queen: The Collectors Collection


1997(2010) - Various Artists - Top Musicians Play Queen: The Collectors Collection




Исполнитель/Artist: Various Artists
Альбом/Album: Top Musicians Play Queen: The Collectors Collection
Год/Year: 1997
Ремастеринг/Remaster: 2010
Жанр/Genre: Heavy Metal, Hard rock, Progressive rock
Страна/Country: Нидерланды
Рекорд-лейбл/Record label: United Audio
Номер в каталоге/Catalogue #: PFB95242
Формат/Format: Free Lossless Audio Codec (*.flac)
Качество/Quality: Lossless
Тип рипа/RIP Type: image+.cue
Продолжительность/Length: 00:45:10
Источник/Source: Собственный рип
Размер/Size: 320.9 MB

Сканы в комплекте

Треклист

01. I Want It All (Vocal: Robin McAuley; Lead Guitar: Chris Impellitteri; Rhythm Guitar: Bob Kulick; Keyboards: Edward Harris Roth; Drums: Jay Schellen) [0:04:09.46]
02. One Vision (Vocal: James LaBrie; Lead & Rhythm Guitar: Bruce Bouillet; Rhythm Guitar: Bob Kulick; Bass:Ricky Phillips; Drums: Jay Schellen) [0:03:47.03]
03. Sheer Heart Attack (Vocal: James LaBrie; Lead and Rhythm Guitar: Marty Friedman; Bass: Tony Franklin; Drums: Carmine Appice) [0:03:29.56]
04. Tie Your Mother Down (Vocal: Lemmy; Lead Guitar: Ted Nugent; Rhythm Guitar: Lemmy; Rhythm Guitar: Bob Kulick; Bass: Rudy Sarzo; Drums: Tommy Aldridge) [0:03:48.06]
05. Another One Bites (Vocal: Adam; Lead and Rhythm Guitar: John Petrucci; Bass: Rudy Sarzo; Drums: Tommy Aldridge) [0:03:32.49]
06. Save Me (Vocal: Jeff Scott Soto; Lead Guitar: Bruce Kulick; Piano: Michael Sherwood; Bass: Ricky Philips; Drums: Eric Singer) [0:04:13.66]
07. Get Down Make Love (Vocal: Glenn Hughes; Lead Guitar: Jake E. Lee; Rhythm Guitar: Bob Kulick; Piano & Organ: Billy Sherwood; Bass: Tony Franklin; Drums: Carmine Appice) [0:04:12.53]
08. It's Late (Vocal: John Bush; Lead Guitars: Scott Ian and Zachary Throne; Bass: Joey Vera; Drums: Jason Ian; Additional Vocals: Scott Ian, Jason Ian, Joey Vera and Zachary Throne) [0:06:19.18]
09. We Will Rock You (Vocal: Paul Shortino; Lead & Rhythm Guitar: Bob Kulick; Drums: Jay Schellen; Backing Vocals: Matt Laurent, Nick Dio) [0:02:04.41]
10. We Are The Champions (Vocal: Paul Shortino; Lead Guitar: Robby Krieger; Rhythm Guitar: Bob Kulick; Piano: Michael Sherwood; Bass: Tony Franklin; Drums: Carmine Appice; Backing Vocals: Matt Laurent, Nick Dio) [0:03:42.61]
11. Bohemian Rhapsody (Vocal: John Wetton [Asia / King Crimson]) [0:05:50.04]
[свернуть]

youtube.com

[свернуть]

EAC лог

Exact Audio Copy V1.0 beta 3 from 29. August 2011

EAC extraction logfile from 1. December 2014, 21:57

Various Artists / Top Musicians Play Queen

Used drive : ATAPI iHAS124 D Adapter: 0 ID: 2

Read mode : Secure
Utilize accurate stream : Yes
Defeat audio cache : Yes
Make use of C2 pointers : No

Read offset correction : 6
Overread into Lead-In and Lead-Out : No
Fill up missing offset samples with silence : Yes
Delete leading and trailing silent blocks : No
Null samples used in CRC calculations : Yes
Used interface : Installed external ASPI interface

Used output format : User Defined Encoder
Selected bitrate : 1024 kBit/s
Quality : High
Add ID3 tag : No
Command line compressor : C:\Program Files (x86)\Exact Audio Copy\Flac\flac.exe
Additional command line options : -6 -V -T "ARTIST=%artist%" -T "TITLE=%title%" -T "ALBUM=%albumtitle%" -T "DATE=%year%" -T "TRACKNUMBER=%tracknr%" -T "GENRE=%genre%" -T "COMMENT=%comment%" -T "BAND=%albuminterpret%" -T "COMPOSER=%composer%" %haslyrics%--tag-from-file=LYRICS="%lyricsfile%"%haslyrics% -T "DISCNUMBER=%cdnumber%" -T "TOTALDISCS=%totalcds%" -T "TOTALTRACKS=%numtracks%" %hascover%--picture="%coverfile%"%hascover% %source% -o %dest%


TOC of the extracted CD

Track | Start | Length | Start sector | End sector
---------------------------------------------------------
1 | 0:00.00 | 4:09.46 | 0 | 18720
2 | 4:09.46 | 3:47.03 | 18721 | 35748
3 | 7:56.49 | 3:29.56 | 35749 | 51479
4 | 11:26.30 | 3:48.06 | 51480 | 68585
5 | 15:14.36 | 3:32.49 | 68586 | 84534
6 | 18:47.10 | 4:13.66 | 84535 | 103575
7 | 23:01.01 | 4:12.53 | 103576 | 122528
8 | 27:13.54 | 6:19.18 | 122529 | 150971
9 | 33:32.72 | 2:04.41 | 150972 | 160312
10 | 35:37.38 | 3:42.61 | 160313 | 177023
11 | 39:20.24 | 5:50.04 | 177024 | 203277


Range status and errors

Selected range

Filename C:\mm\2010 - Various Artists - Top Musicians Play [PFB95242]\Various Artists - Top Musicians Play Queen.wav

Peak level 100.0 %
Extraction speed 8.4 X
Range quality 100.0 %
Test CRC 1259A76A
Copy CRC 1259A76A
Copy OK

No errors occurred


AccurateRip summary

Track 1 accurately ripped (confidence 2) [A121B0E1] (AR v1)
Track 2 accurately ripped (confidence 2) [1D6BF8A1] (AR v1)
Track 3 accurately ripped (confidence 2) [6435B422] (AR v1)
Track 4 accurately ripped (confidence 2) [667268EA] (AR v1)
Track 5 accurately ripped (confidence 2) [86E3941D] (AR v1)
Track 6 accurately ripped (confidence 2) [EF65F17C] (AR v1)
Track 7 accurately ripped (confidence 2) [2EFBA4BE] (AR v1)
Track 8 accurately ripped (confidence 2) [F9AD1E7E] (AR v1)
Track 9 accurately ripped (confidence 2) [4EA43741] (AR v1)
Track 10 accurately ripped (confidence 2) [9E423659] (AR v1)
Track 11 accurately ripped (confidence 2) [DF71F78D] (AR v1)

All tracks accurately ripped

End of status report
[свернуть]

Файл CUE

REM GENRE Rock
REM DATE 2010
REM DISCID 910A960B
REM COMMENT "ExactAudioCopy v1.0b3"
PERFORMER "Various Artists"
TITLE "Top Musicians Play Queen"
FILE "Various Artists - Top Musicians Play Queen.flac" WAVE
TRACK 01 AUDIO
TITLE "I Want It All"
PERFORMER "Robin McAuley (vocals), Bob Kulick (guitars)"
INDEX 01 00:00:00
TRACK 02 AUDIO
TITLE "One Vision"
PERFORMER "James Labrie [Dream Theatre] (vocals), Bruce Bouillet [Racer X] (guitars)"
INDEX 00 04:07:46
INDEX 01 04:09:46
TRACK 03 AUDIO
TITLE "Sheer Heart Attack"
PERFORMER "James Labrie [Dream Theatre] (vocals), Ted Nugent (guitars)"
INDEX 00 07:54:49
INDEX 01 07:56:49
TRACK 04 AUDIO
TITLE "Tie Your Mother Down"
PERFORMER "Lemmy Kilmister [Motorhead] (vocals), Ted Nugent (guitars)"
INDEX 00 11:24:30
INDEX 01 11:26:30
TRACK 05 AUDIO
TITLE "Another One Bites"
PERFORMER "Jack Russell [Great White]"
INDEX 00 15:12:36
INDEX 01 15:14:36
TRACK 06 AUDIO
TITLE "Save Me"
PERFORMER "Jeff Scott Soto (vocals), Bruce Kulick (guitars)"
INDEX 00 18:45:10
INDEX 01 18:47:10
TRACK 07 AUDIO
TITLE "Get Down Make Love"
PERFORMER "Glenn Hughes (vocals), Jake E. Lee (guitars)"
INDEX 00 22:59:01
INDEX 01 23:01:01
TRACK 08 AUDIO
TITLE "It's Late"
PERFORMER "John Bush [Anthrax] (vocals), Scott Ian [Anthrax] (guitars)"
INDEX 00 27:11:54
INDEX 01 27:13:54
TRACK 09 AUDIO
TITLE "We Will Rock You"
PERFORMER "Paul Shortino [Rough Cutt] (vocals), Bruce Kulick (guitars)"
INDEX 00 33:30:72
INDEX 01 33:32:72
TRACK 10 AUDIO
TITLE "We Are The Champions"
PERFORMER "Paul Shortino [Rough Cutt] (vocals), Robby Krieger [The Doors] (guitars)"
INDEX 00 35:35:38
INDEX 01 35:37:38
TRACK 11 AUDIO
TITLE "Bohemian Rhapsody"
PERFORMER "John Wetton [Asia, King Crimson] (vocals)"
INDEX 00 39:18:24
INDEX 01 39:20:24
[свернуть]

Лог проверки качества

AUDIOCHECKER v2.0 beta (build 457) - by Dester - [Ссылки могут видеть только зарегистрированные и активированные пользователи.]
[Only registered and activated users can see links.]
~~~~~~~~~~~~~~~~~~~~~~~~~~~~~~~~~~
-=== НЕ РЕДАКТИРУЙТЕ ЭТОТ ФАЙЛ! ===-

Путь: ...\2010 - Various Artists - Top Musicians Play [PFB95242]

1 -=- Various Artists - Top Musicians Play Queen.flac -=- CDDA (100%)

256992548
[свернуть]

Спектр частот

[свернуть]

Скачать Various Artists - Top Musicians Play Queen

[Ссылки могут видеть только зарегистрированные и активированные пользователи.]
[Only registered and activated users can see links.]

password: sergych
[свернуть]
My opinion of release: 10/10

Release info RInfo

Голландский выпуск английского переиздания трибьюта, выпущенного в 1997 году под названием "Dragon Attack: Tribute to Queen". Переиздание получило название "Top Musicians Play Queen: The Collectors Collection", а вместо трека "Keep Yourself Alive" была включена "Bohemian Rhapsody" с вокалом John Wetton.
__________________
TAIFUN.Wings of Soul

Вверх
3 пользователя(ей) сказали cпасибо:
Bumbum (03.12.2014), TAIFUN (02.12.2014), VladislavUdalov (25.11.2017)
Похожие темы
Тема Автор Раздел Ответов Последнее сообщение
Сборник Various Artists - Top Musicians Play Sting and the Police sergych Pop Rock 0 18.10.2014 14:08
Сборник Various Artists - Top Musicians Play Pink Floyd sergych Progressive Rock 0 12.10.2014 19:19
Сборник Various Artists - Motown Meets The Beatles sergych Зарубежная Поп-Музыка 0 27.12.2013 16:56
Релиз Highlord - The Death Of The Artists PUPOKIN Power Metal 0 02.01.2010 12:03
Сборник Queen - Queen Rocks PUPOKIN Hard Rock 0 13.01.2009 13:24


Метки
1997 , hard rock , heavy metal , progressive rock , queen , top musicians play queen , various artists

Опции темы

Ваши права в разделе
Вы не можете создавать новые темы
Вы не можете отвечать в темах
Вы не можете прикреплять вложения
Вы не можете редактировать свои сообщения

Быстрый переход




Текущее время: 23:13. Часовой пояс GMT +3.
Powered by vBulletin® Version 3.8.10
Copyright ©2000 - 2019, vBulletin Solutions, Inc. Перевод: zCarot
© 2008 - 2019 Taifun With Song
Яндекс.Метрика