TAIFUN With Song
Навигация
Вернуться   TAIFUN With Song > Music (обменник) > Rock > Progressive Rock
Расширенный поиск
Progressive Rock Единственной универсальной характеристикой прогрессивного рока является усложнение музыкальной формы. Это проявляется в удлиннении и усложнении музыкальных пьес, тяготении к циклическим формам академической музыки; расширении репертуара используемых тембров, усложнении метра и ритма, использовании нетрадиционных для рока мелодических и гармонических решений; поэзии, уходящей от тем развлекательной музыки и тяготеющей к философским «вечным темам», фантастической и фентезийной тематике; переплетении с классической и современной академической музыкой, джазом.

А знаете ли Вы, что...
Кто такой Сироб Вокищнеберг, упомянутый в описании альбома «Яблокитай» группы «Наутилус Помпилиус»?
«В описании альбома «Яблокитай» группы «Наутилус Помпилиус» указан некий профессор Сироб Вокищнеберг, играющий на реверсах. Этот таинственный человек никто иной, как Борис Гребенщиков, записанный наоборот. Таким образом удачно обыграли его работу с реверсами — прокручиванием музыкальных фрагментов в обратном направлении.»
 
Опции темы

  #1
Старый 18.10.2017, 18:20
sergych
Координатор
Досье
 
Аватар для sergych
Релиз Manfred Mann - Soul Of Mann


1967(1995) - Manfred Mann - Soul Of Mann




Исполнитель/Artist: Manfred Mann
Альбом/Album: Soul Of Mann
Год/Year: 1967
Ремастеринг/Remaster: 1995
Жанр/Genre: Progressive rock, Jazz, Folk, Blues Rock
Страна/Country: Япония
Рекорд-лейбл/Record label: Toshiba-EMI
Номер в каталоге/Catalogue #: TOCP-7943
Формат/Format: Free Lossless Audio Codec (*.flac)
Качество/Quality: Lossless
Тип рипа/RIP Type: image+.cue
Продолжительность/Length: 00:39:01
Источник/Source: Собственный рип
Размер/Size: 208.9 MB

Сканы в комплекте

Треклист

01. The Abominable Snowmann [0:02:48.15]
02. I Got You Babe [0:02:34.07]
03. Bare Hugg [0:03:54.05]
04. Spirit Feel [0:02:42.58]
05. Why Should We Not? [0:02:24.17]
06. L.S.D. [0:03:52.05]
07. (I Can't Get No) Satisfaction [0:02:57.65]
08. God Rest Ye Merry Gentlemenn [0:01:57.35]
09. My Generation [0:02:31.50]
10. Mr.Anello [0:02:21.03]
11. Stil I'm Sad [0:02:44.17]
12. Tengo, Tango [0:03:37.10]
13. Brother Jack [0:02:29.70]
14. Sack O' Woe [0:02:05.58]
[свернуть]

youtube.com

[свернуть]

EAC лог

Exact Audio Copy V1.3 from 2. September 2016

EAC extraction logfile from 16. October 2017, 20:25

Manfred Mann / Soul Of Mann

Used drive : ATAPI iHAS124 D Adapter: 0 ID: 2

Read mode : Secure
Utilize accurate stream : Yes
Defeat audio cache : Yes
Make use of C2 pointers : No

Read offset correction : 6
Overread into Lead-In and Lead-Out : No
Fill up missing offset samples with silence : Yes
Delete leading and trailing silent blocks : No
Null samples used in CRC calculations : Yes
Used interface : Installed external ASPI interface

Used output format : User Defined Encoder
Selected bitrate : 1024 kBit/s
Quality : High
Add ID3 tag : No
Command line compressor : C:\Program Files (x86)\Exact Audio Copy\Flac\flac.exe
Additional command line options : -6 -V -T "ARTIST=%artist%" -T "TITLE=%title%" -T "ALBUM=%albumtitle%" -T "DATE=%year%" -T "TRACKNUMBER=%tracknr%" -T "GENRE=%genre%" -T "COMMENT=%comment%" -T "BAND=%albuminterpret%" -T "ALBUMARTIST=%albuminterpret%" -T "COMPOSER=%composer%" %haslyrics%--tag-from-file=LYRICS="%lyricsfile%"%haslyrics% -T "DISCNUMBER=%cdnumber%" -T "TOTALDISCS=%totalcds%" -T "TOTALTRACKS=%numtracks%" %hascover%--picture="%coverfile%"%hascover% %source% -o %dest%


TOC of the extracted CD

Track | Start | Length | Start sector | End sector
---------------------------------------------------------
1 | 0:00.00 | 2:48.15 | 0 | 12614
2 | 2:48.15 | 2:34.07 | 12615 | 24171
3 | 5:22.22 | 3:54.05 | 24172 | 41726
4 | 9:16.27 | 2:42.58 | 41727 | 53934
5 | 11:59.10 | 2:24.17 | 53935 | 64751
6 | 14:23.27 | 3:52.05 | 64752 | 82156
7 | 18:15.32 | 2:57.65 | 82157 | 95496
8 | 21:13.22 | 1:57.35 | 95497 | 104306
9 | 23:10.57 | 2:31.50 | 104307 | 115681
10 | 25:42.32 | 2:21.03 | 115682 | 126259
11 | 28:03.35 | 2:44.17 | 126260 | 138576
12 | 30:47.52 | 3:37.10 | 138577 | 154861
13 | 34:24.62 | 2:29.70 | 154862 | 166106
14 | 36:54.57 | 2:05.58 | 166107 | 175539


Range status and errors

Selected range

Filename C:\mm\Manfred Mann\1967(1995) - Soul Of Mann [TOCP-7943]\Manfred Mann - Soul Of Mann.wav

Peak level 100.0 %
Extraction speed 7.9 X
Range quality 100.0 %
Test CRC 2077BDBD
Copy CRC 2077BDBD
Copy OK

No errors occurred


AccurateRip summary

Track 1 accurately ripped (confidence 1) [C3FD25BB] (AR v1)
Track 2 accurately ripped (confidence 1) [A90C51A7] (AR v1)
Track 3 accurately ripped (confidence 1) [DCB3575E] (AR v1)
Track 4 accurately ripped (confidence 1) [0E34F94B] (AR v1)
Track 5 accurately ripped (confidence 1) [3F0D1167] (AR v1)
Track 6 accurately ripped (confidence 1) [866F1291] (AR v1)
Track 7 accurately ripped (confidence 1) [AFA0A164] (AR v1)
Track 8 accurately ripped (confidence 1) [F8F95FC4] (AR v1)
Track 9 accurately ripped (confidence 1) [6A8BB77E] (AR v1)
Track 10 accurately ripped (confidence 1) [BFB8B93E] (AR v1)
Track 11 accurately ripped (confidence 1) [3DB7048F] (AR v1)
Track 12 accurately ripped (confidence 1) [13791888] (AR v1)
Track 13 accurately ripped (confidence 1) [46874AF5] (AR v1)
Track 14 accurately ripped (confidence 1) [4F4AA3EB] (AR v1)

All tracks accurately ripped

End of status report

---- CUETools DB Plugin V2.1.6

[CTDB TOCID: 4g60wCd988XxmUHq9NGu0JKApHE-] disk not present in database
Submit result: 4g60wCd988XxmUHq9NGu0JKApHE- has been uploaded
[свернуть]

Файл CUE

REM GENRE Rock
REM DATE 1967
REM DISCID C209240E
REM COMMENT "ExactAudioCopy v1.3"
PERFORMER "Manfred Mann"
TITLE "Soul Of Mann"
REM COMPOSER ""
FILE "Manfred Mann - Soul Of Mann.flac" WAVE
TRACK 01 AUDIO
TITLE "The Abominable Snowmann"
PERFORMER "Manfred Mann"
REM COMPOSER ""
INDEX 01 00:00:00
TRACK 02 AUDIO
TITLE "I Got You Babe"
PERFORMER "Manfred Mann"
REM COMPOSER ""
INDEX 00 02:43:55
INDEX 01 02:48:15
TRACK 03 AUDIO
TITLE "Bare Hugg"
PERFORMER "Manfred Mann"
REM COMPOSER ""
INDEX 00 05:17:62
INDEX 01 05:22:22
TRACK 04 AUDIO
TITLE "Spirit Feel"
PERFORMER "Manfred Mann"
REM COMPOSER ""
INDEX 00 09:11:60
INDEX 01 09:16:27
TRACK 05 AUDIO
TITLE "Why Should We Not?"
PERFORMER "Manfred Mann"
REM COMPOSER ""
INDEX 00 11:54:52
INDEX 01 11:59:10
TRACK 06 AUDIO
TITLE "L.S.D."
PERFORMER "Manfred Mann"
REM COMPOSER ""
INDEX 00 14:18:70
INDEX 01 14:23:27
TRACK 07 AUDIO
TITLE "(I Can't Get No) Satisfaction"
PERFORMER "Manfred Mann"
REM COMPOSER ""
INDEX 00 18:10:70
INDEX 01 18:15:32
TRACK 08 AUDIO
TITLE "God Rest Ye Merry Gentlemenn"
PERFORMER "Manfred Mann"
REM COMPOSER ""
INDEX 00 21:08:60
INDEX 01 21:13:22
TRACK 09 AUDIO
TITLE "My Generation"
PERFORMER "Manfred Mann"
REM COMPOSER ""
INDEX 00 23:06:17
INDEX 01 23:10:57
TRACK 10 AUDIO
TITLE "Mr.Anello"
PERFORMER "Manfred Mann"
REM COMPOSER ""
INDEX 00 25:38:33
INDEX 01 25:42:32
TRACK 11 AUDIO
TITLE "Stil I'm Sad"
PERFORMER "Manfred Mann"
REM COMPOSER ""
INDEX 00 27:58:72
INDEX 01 28:03:35
TRACK 12 AUDIO
TITLE "Tengo, Tango"
PERFORMER "Manfred Mann"
REM COMPOSER ""
INDEX 00 30:43:12
INDEX 01 30:47:52
TRACK 13 AUDIO
TITLE "Brother Jack"
PERFORMER "Manfred Mann"
REM COMPOSER ""
INDEX 00 34:20:10
INDEX 01 34:24:62
TRACK 14 AUDIO
TITLE "Sack O' Woe"
PERFORMER "Manfred Mann"
REM COMPOSER ""
INDEX 00 36:50:25
INDEX 01 36:54:57
[свернуть]

Лог проверки качества

AUDIOCHECKER v2.0 beta (build 457) - by Dester -
~~~~~~~~~~~~~~~~~~~~~~~~~~~~~~~~~~
-=== НЕ РЕДАКТИРУЙТЕ ЭТОТ ФАЙЛ! ===-

Путь: ...\1967(1995) - Soul Of Mann [TOCP-7943]

1 -=- Manfred Mann - Soul Of Mann.flac -=- MPEG (95%)

24155828
[свернуть]

Спектр частот

[свернуть]

Скачать Manfred Mann - Soul Of Mann



password: sergych
[свернуть]

Контрольная сумма (хеш-сумма) архива

MD5: 6cc4de3c8628e577ff84406609375e6b
[свернуть]
My opinion of release: 10/10

Release info RInfo

Сборник инструментальных работы раннего Манфреда.
Моно.
__________________
TAIFUN.Wings of Soul

Вверх
2 пользователя(ей) сказали cпасибо:
johnsilver (18.10.2017), swint68 (19.10.2017)
Похожие темы
Тема Автор Раздел Ответов Последнее сообщение
Сборник Manfred Mann - The Best Of Manfred Mann {Ten Best Series} sergych Progressive Rock 0 23.02.2014 05:17
Альбом Manfred Mann - Mann Made sergych Progressive Rock 1 02.09.2010 18:21
Live Manfred Mann's Earth Band - Mann Alive sergych Progressive Rock 0 02.08.2010 18:01
Альбом Manfred Mann - The Manfred Mann Album sergych Progressive Rock 0 13.10.2008 20:47
Альбом Manfred Mann - The Five Faces Of Manfred Mann sergych Progressive Rock 0 13.10.2008 15:20


Метки
1967 , folk , jazz , manfred mann , progressive rock , rock , soul of mann

Опции темы

Ваши права в разделе
Вы не можете создавать новые темы
Вы не можете отвечать в темах
Вы не можете прикреплять вложения
Вы не можете редактировать свои сообщения

Быстрый переход



Текущее время: 05:52. Часовой пояс GMT +3.
Powered by vBulletin® Version 3.8.10
Copyright ©2000 - 2018, vBulletin Solutions, Inc. Перевод: zCarot
© 2008 - 2018 Taifun With Song
Яндекс.Метрика