TAIFUN With Song
Навигация
Вернуться   TAIFUN With Song > Music (обменник) > Rock > Progressive Rock
Расширенный поиск
Progressive Rock Единственной универсальной характеристикой прогрессивного рока является усложнение музыкальной формы. Это проявляется в удлиннении и усложнении музыкальных пьес, тяготении к циклическим формам академической музыки; расширении репертуара используемых тембров, усложнении метра и ритма, использовании нетрадиционных для рока мелодических и гармонических решений; поэзии, уходящей от тем развлекательной музыки и тяготеющей к философским «вечным темам», фантастической и фентезийной тематике; переплетении с классической и современной академической музыкой, джазом.

А знаете ли Вы, что...
Какая опера на произведение немецкого классика дала музыку самой известной пионерской песне?
«Музыка к пионерской песне «Взвейтесь кострами, синие ночи» написана на основе «Марша солдат» из оперы Шарля Гуно «Фауст».»
 
Опции темы

  #1
Старый 18.09.2015, 00:06
TAIFUN
Admin
Досье
 
Аватар для TAIFUN
По умолчанию David Gilmour - Rattle That Lock


2015 - David Gilmour - Rattle That Lock




Исполнитель/Artist: David Gilmour
Альбом/Album: Rattle That Lock
Год/Year: 2015
Жанр/Genre: Progressive Rock
Страна/Country: Европа
Рекорд-лейбл/Record label: Sony Music/Columbia/David Gilmour Music
Номер в каталоге/Catalogue #: 88875123262
Формат/Format: Free Lossless Audio Codec (*.flac)
Качество/Quality: Lossless
Тип рипа/RIP Type: tracks+.cue
Продолжительность/Length: 00:51:25
Источник/Source: what.cd
Размер/Size: 638 MB

Сканы в комплекте

Треклист

1. 5 A.M.
2. Rattle That Lock
3. Faces Of Stone
4. A Boat Lies Waiting
5. Dancing Right In Front Of Me
6. In Any Tongue
7. Beauty
8. The Girl In The Yellow Dress
9. Today
10. And Then...
[свернуть]

youtube.com

[свернуть]

EAC лог

Exact Audio Copy V1.0 beta 6 from 9. April 2015
EAC extraction logfile from 27. September 2015, 23:01
David Gilmour / Rattle That Lock
Used drive : PLEXTOR DVDR PX-891SA Adapter: 0 ID: 2
Read mode : Secure
Utilize accurate stream : Yes
Defeat audio cache : Yes
Make use of C2 pointers : No
Read offset correction : 6
Overread into Lead-In and Lead-Out : No
Fill up missing offset samples with silence : Yes
Delete leading and trailing silent blocks : No
Null samples used in CRC calculations : Yes
Used interface : Installed external ASPI interface
Used output format : User Defined Encoder
Selected bitrate : 320 kBit/s
Quality : High
Add ID3 tag : No
Command line compressor : C:\Program Files\Exact Audio Copy 1.0 b6\Exact Audio Copy\Flac\flac.exe
Additional command line options : -V -8 -T "Date=%year%" -T "Genre=%genre%" %source%
TOC of the extracted CD
Track | Start | Length | Start sector | End sector
---------------------------------------------------------
1 | 0:00.00 | 3:04.66 | 0 | 13865
2 | 3:04.66 | 4:55.43 | 13866 | 36033
3 | 8:00.34 | 5:32.14 | 36034 | 60947
4 | 13:32.48 | 4:34.48 | 60948 | 81545
5 | 18:07.21 | 6:11.15 | 81546 | 109385
6 | 24:18.36 | 6:46.58 | 109386 | 139893
7 | 31:05.19 | 4:28.43 | 139894 | 160036
8 | 35:33.62 | 5:25.49 | 160037 | 184460
9 | 40:59.36 | 5:55.51 | 184461 | 211136
10 | 46:55.12 | 4:29.69 | 211137 | 231380
Range status and errors
Selected range
Filename L:\Lossless Temp\David Gilmour\2015. David Gilmour - Rattle That Lock (2015 Sony Music, 88875123262, E.U.)\David Gilmour - Rattle That Lock.wav
Peak level 100.0 %
Extraction speed 8.7 X
Range quality 100.0 %
Test CRC 5F502E61
Copy CRC 5F502E61
Copy OK
No errors occurred
AccurateRip summary
Track 1 not present in database
Track 2 not present in database
Track 3 not present in database
Track 4 not present in database
Track 5 not present in database
Track 6 not present in database
Track 7 not present in database
Track 8 not present in database
Track 9 not present in database
Track 10 not present in database
None of the tracks are present in the AccurateRip database
End of status report
==== Log checksum 1BC44200BA31B54A5FFBAA8EBCB3E1549978B3A6625C0048BD9EA82F0CCA79D1 ====

[свернуть]

Файл CUE

REM GENRE Progressive Rock
REM DATE 2015
REM DISCID 890C0D0A
REM COMMENT "ExactAudioCopy v1.0b6"
CATALOG 8887512326240
PERFORMER "David Gilmour"
TITLE "Rattle That Lock"
FILE "David Gilmour - Rattle That Lock.flac" WAVE
TRACK 01 AUDIO
TITLE "Five A.M."
PERFORMER "David Gilmour"
ISRC GBLTP1500007
INDEX 01 00:00:00
TRACK 02 AUDIO
TITLE "Rattle That Lock"
PERFORMER "David Gilmour"
ISRC GBLTP1500008
INDEX 01 03:04:66
TRACK 03 AUDIO
TITLE "Faces Of Stone"
PERFORMER "David Gilmour"
ISRC GBLTP1500009
INDEX 01 08:00:34
TRACK 04 AUDIO
TITLE "A Boat Lies Waiting"
PERFORMER "David Gilmour"
ISRC GBLTP1500010
INDEX 01 13:32:48
TRACK 05 AUDIO
TITLE "Dancing Right In Front Of Me"
PERFORMER "David Gilmour"
ISRC GBLTP1500011
INDEX 01 18:07:21
TRACK 06 AUDIO
TITLE "In Any Tongue"
PERFORMER "David Gilmour"
ISRC GBLTP1500012
INDEX 01 24:18:36
TRACK 07 AUDIO
TITLE "Beauty"
PERFORMER "David Gilmour"
ISRC GBLTP1500013
INDEX 01 31:05:19
TRACK 08 AUDIO
TITLE "The Girl In The Yellow Dress"
PERFORMER "David Gilmour"
ISRC GBLTP1500014
INDEX 01 35:33:62
TRACK 09 AUDIO
TITLE "Today"
PERFORMER "David Gilmour"
ISRC GBLTP1500015
INDEX 01 40:59:36
TRACK 10 AUDIO
TITLE "And Then..."
PERFORMER "David Gilmour"
ISRC GBLTP1500016
INDEX 01 46:55:12
[свернуть]

Спектр частот

[свернуть]

Скачать David Gilmour - Rattle That Lock

[свернуть]
My opinion of release: 9/10

Release info RInfo

"Rattle That Lock" is the new solo album by David Gilmour, the voice and guitar of Pink Floyd. This is David's fourth solo album, and the first since 2006's # 1 album "On An Island". The primary lyricist for "Rattle That Lock" is Gilmour s long-term writing partner, Polly Samson, and the album is co-produced by David Gilmour and Roxy Music s Phil Manzanera. The album's striking cover has been art directed by Dave Stansbie.

The lead single of this album is the title track, "Rattle That Lock". The song begins with the four notes, created by Michael Boumendil, which precede announcements at French SNCF railway stations which Gilmour recorded on his iphone at Aix station. Samson s lyrics are inspired by Book 2 of John Milton s Paradise Lost, which is also featured in her recent acclaimed novel, The Kindness. The single also features the Liberty Choir and singers Mica Paris and Louise Marshall.

Hot on the heels of the incredibly successful release of Pink Floyd’s The Endless River, David Gilmour returns with his new 5th solo album, ‘Rattle That Lock’. One of Rock N’ Roll’s seminal front men and guitarists, and ranked by Rolling Stone as the #14 Greatest Guitarist of All Time, Gilmour is known for his pivotal involvement as the lead singer and guitarist of Pink Floyd – a band that has sold 250 million records worldwide.

‘Rattle That Lock’ is loosely based on a ‘day in the life of’, ranging across the myriad of thoughts and feelings that all of us have in the course of a single day: a mixture of both personal and worldly.


Последний раз редактировалось TAIFUN, 02.10.2015 в 07:16. Причина: Новый рип + сканы
Вверх
2 пользователя(ей) сказали cпасибо:
sergych (18.09.2015), Stanislav1989 (18.09.2015)
  #2
Старый 02.10.2015, 07:17
TAIFUN
Admin
Досье
 
Аватар для TAIFUN
По умолчанию Re: David Gilmour - Rattle That Lock

Внимание!

Перезалив.
1. Новый, более качественный рип.
2. Сканы.
__________________
I love the music
FAQ по форуму
Правила форума
Жизнь человека - это не самое главное в его жизни...

Вверх
2 пользователя(ей) сказали cпасибо:
sergych (05.10.2015), Stanislav1989 (03.10.2015)
  #3
Старый 12.06.2018, 18:34
sergych
Координатор
Досье
 
Аватар для sergych
Релиз Re: David Gilmour - Rattle That Lock


2015 - David Gilmour - Rattle That Lock




Исполнитель/Artist: David Gilmour
Альбом/Album: Rattle That Lock
Год/Year: 2015
Жанр/Genre: Progressive Rock
Страна/Country: Австрия
Рекорд-лейбл/Record label: Sony Music
Номер в каталоге/Catalogue #: 888751232624
Формат/Format: Free Lossless Audio Codec (*.flac)
Качество/Quality: Lossless
Тип рипа/RIP Type: image+.cue
Продолжительность/Length: 00:51:25
Источник/Source: Собственный рип
Размер/Size: 442.6 MB

Сканы в комплекте

Треклист

01. 5 A.M. [0:03:04.66]
02. Rattle That Lock [0:04:55.43]
03. Faces Of Stone [0:05:32.14]
04. A Boat Lies Waiting [0:04:34.48]
05. Dancing Right In Front Of Me [0:06:11.15]
06. In Any Tongue [0:06:46.58]
07. Beauty [0:04:28.43]
08. The Girl In The Yellow Dress [0:05:25.49]
09. Today [0:05:55.51]
10. And Then? [0:04:29.69]
[свернуть]

youtube.com

[свернуть]

Исполнители/Performers

David Gilmour – lead vocals (all); guitars (all); keyboards (all except 8); piano (1, 3, 4, 5); SNCF sample (2); Hammond organ (2, 5, 9); bass guitar (5, 6, 7, 10); bass harmonica (7); electric piano (9, 10)
Jon Carin – electric piano (9)
David Crosby, Graham Nash – backing vocals (4)
Danny Cummings – percussion (3, 4, 5, 7, 10)
Steve DiStanislao – drums (2, 3, 5, 7, 9); percussion (2, 3, 7); backing vocals (2)
Roger Eno – piano (4, 7)
Martin France – drums (8)
Gabriel Gilmour – piano (6)
Jools Holland – piano (8)
Damon Iddins – accordion (3); calliope keyboard (3)
Rado Klose – guitar (8)
Chris Laurence – double bass (8)
The Liberty Choir – backing vocals (2)
Phil Manzanera – Hammond organ (2, 3); keyboard elements (2, 3, 6); acoustic guitar (3, 9)
Louise Marshall – backing vocals (2, 9)
Andy Newmark – drums (5, 6, 10)
Eira Owen – French horn (3)
John Parricelli – guitar (8)
Mica Paris – backing vocals (2, 9)
Guy Pratt – bass guitar (2, 9)
Mike Rowe – electric piano (9)
Polly Samson – backing vocals (9)
Yaron Stavi – bass guitar (2); double bass (2, 4, 5); backing vocals (2)
Colin Stetson – saxophone (8)
Richard Wright – voice sample (4)
Robert Wyatt – cornet (8)
Zbigniew Preisner – orchestration (1, 3, 5, 6, 9, 10)
Michaël Boumendil – original SNCF jingle (2)

Barn Jam personnel
David Gilmour – guitars
Richard Wright – keyboards
Guy Pratt – bass guitar
Steve DiStanislao – drums
[свернуть]

EAC лог

Exact Audio Copy V1.2 from 12. August 2016

EAC extraction logfile from 21. October 2016, 22:50

David Gilmour / Rattle That Lock

Used drive : ATAPI iHAS124 D Adapter: 1 ID: 0

Read mode : Secure
Utilize accurate stream : Yes
Defeat audio cache : Yes
Make use of C2 pointers : No

Read offset correction : 6
Overread into Lead-In and Lead-Out : No
Fill up missing offset samples with silence : Yes
Delete leading and trailing silent blocks : No
Null samples used in CRC calculations : Yes
Used interface : Native Win32 interface for Win NT & 2000

Used output format : User Defined Encoder
Selected bitrate : 1024 kBit/s
Quality : High
Add ID3 tag : No
Command line compressor : C:\Program Files (x86)\Exact Audio Copy\FLAC\FLAC.EXE
Additional command line options : -6 -V -T "ARTIST=%artist%" -T "TITLE=%title%" -T "ALBUM=%albumtitle%" -T "DATE=%year%" -T "TRACKNUMBER=%tracknr%" -T "GENRE=%genre%" -T "COMMENT=%comment%" -T "BAND=%albuminterpret%" -T "ALBUMARTIST=%albuminterpret%" -T "COMPOSER=%composer%" %haslyrics%--tag-from-file=LYRICS="%lyricsfile%"%haslyrics% -T "DISCNUMBER=%cdnumber%" -T "TOTALDISCS=%totalcds%" -T "TOTALTRACKS=%numtracks%" %hascover%--picture="%coverfile%"%hascover% %source% -o %dest%


TOC of the extracted CD

Track | Start | Length | Start sector | End sector
---------------------------------------------------------
1 | 0:00.00 | 3:04.66 | 0 | 13865
2 | 3:04.66 | 4:55.43 | 13866 | 36033
3 | 8:00.34 | 5:32.14 | 36034 | 60947
4 | 13:32.48 | 4:34.48 | 60948 | 81545
5 | 18:07.21 | 6:11.15 | 81546 | 109385
6 | 24:18.36 | 6:46.58 | 109386 | 139893
7 | 31:05.19 | 4:28.43 | 139894 | 160036
8 | 35:33.62 | 5:25.49 | 160037 | 184460
9 | 40:59.36 | 5:55.51 | 184461 | 211136
10 | 46:55.12 | 4:29.69 | 211137 | 231380


Range status and errors

Selected range

Filename C:\mm\Pink Floyd\David Gilmour\2015 - Rattle That Lock [888751232624]\David Gilmour - Rattle That Lock.wav

Peak level 100.0 %
Extraction speed 3.4 X
Range quality 100.0 %
Test CRC 5F502E61
Copy CRC 5F502E61
Copy OK

No errors occurred


AccurateRip summary

Track 1 accurately ripped (confidence 200) [84BC434D] (AR v2)
Track 2 accurately ripped (confidence 200) [744D882B] (AR v2)
Track 3 accurately ripped (confidence 200) [B38A7869] (AR v2)
Track 4 accurately ripped (confidence 200) [8BD76618] (AR v2)
Track 5 accurately ripped (confidence 200) [6F802975] (AR v2)
Track 6 accurately ripped (confidence 200) [F3BEC13F] (AR v2)
Track 7 accurately ripped (confidence 200) [7242FACC] (AR v2)
Track 8 accurately ripped (confidence 200) [81701FDF] (AR v2)
Track 9 accurately ripped (confidence 200) [7399E3E7] (AR v2)
Track 10 accurately ripped (confidence 200) [F33E07B5] (AR v2)

All tracks accurately ripped

End of status report

---- CUETools DB Plugin V2.1.6

[CTDB TOCID: cQTSoq3YWAXUoIahgrHI0uOAuVA-] found
Submit result: cQTSoq3YWAXUoIahgrHI0uOAuVA- has been confirmed
Track | CTDB Status
1 | (1881/1896) Accurately ripped
2 | (1883/1896) Accurately ripped
3 | (1884/1896) Accurately ripped
4 | (1885/1896) Accurately ripped
5 | (1886/1896) Accurately ripped
6 | (1884/1896) Accurately ripped
7 | (1883/1896) Accurately ripped
8 | (1883/1896) Accurately ripped
9 | (1881/1896) Accurately ripped
10 | (1875/1896) Accurately ripped
[свернуть]

Файл CUE

REM GENRE "Progressive Rock"
REM DATE 2015
REM DISCID 890C0D0A
REM COMMENT "ExactAudioCopy v1.2"
PERFORMER "David Gilmour"
TITLE "Rattle That Lock"
REM COMPOSER ""
FILE "David Gilmour - Rattle That Lock.flac" WAVE
TRACK 01 AUDIO
TITLE "5 A.M."
PERFORMER "David Gilmour"
REM COMPOSER ""
INDEX 01 00:00:00
TRACK 02 AUDIO
TITLE "Rattle That Lock"
PERFORMER "David Gilmour"
REM COMPOSER ""
INDEX 01 03:04:66
TRACK 03 AUDIO
TITLE "Faces Of Stone"
PERFORMER "David Gilmour"
REM COMPOSER ""
INDEX 01 08:00:34
TRACK 04 AUDIO
TITLE "A Boat Lies Waiting"
PERFORMER "David Gilmour"
REM COMPOSER ""
INDEX 01 13:32:48
TRACK 05 AUDIO
TITLE "Dancing Right In Front Of Me"
PERFORMER "David Gilmour"
REM COMPOSER ""
INDEX 01 18:07:21
TRACK 06 AUDIO
TITLE "In Any Tongue"
PERFORMER "David Gilmour"
REM COMPOSER ""
INDEX 01 24:18:36
TRACK 07 AUDIO
TITLE "Beauty"
PERFORMER "David Gilmour"
REM COMPOSER ""
INDEX 01 31:05:19
TRACK 08 AUDIO
TITLE "The Girl In The Yellow Dress"
PERFORMER "David Gilmour"
REM COMPOSER ""
INDEX 01 35:33:62
TRACK 09 AUDIO
TITLE "Today"
PERFORMER "David Gilmour"
REM COMPOSER ""
INDEX 01 40:59:36
TRACK 10 AUDIO
TITLE "And Then?"
PERFORMER "David Gilmour"
REM COMPOSER ""
INDEX 01 46:55:12
[свернуть]

Лог проверки качества

AUDIOCHECKER v2.0 beta (build 457) - by Dester -
~~~~~~~~~~~~~~~~~~~~~~~~~~~~~~~~~~
-=== НЕ РЕДАКТИРУЙТЕ ЭТОТ ФАЙЛ! ===-

Путь: ...\2015 - Rattle That Lock [888751232624]

1 -=- David Gilmour - Rattle That Lock.flac -=- CDDA (100%)

38239332
[свернуть]

Спектр частот

[свернуть]

Скачать David Gilmour - Rattle That Lock



password: sergych
[свернуть]

Контрольная сумма (хеш-сумма) архива

MD5: eead9a9bc59bf7101126de36b382ce12
[свернуть]
My opinion of release: 10/10

Release info RInfo

добавлю и свои 5 копеек, а то 2 года диск "пылится" впустую
__________________
TAIFUN.Wings of Soul

Вверх
2 пользователя(ей) сказали cпасибо:
johnsilver (12.06.2018), swint68 (12.06.2018)
Похожие темы
Тема Автор Раздел Ответов Последнее сообщение
Альбом David Gilmour - David Gilmour sergych Progressive Rock 1 10.06.2018 19:07
Альбом David Gilmour - On An Island sergych Progressive Rock 1 27.11.2010 07:56
Live David Gilmour - Le Zenith, Paris, France sergych Progressive Rock 0 16.11.2010 11:19
Live David Gilmour - Live In Hammersmith Odeon sergych Progressive Rock 0 15.11.2010 12:32


Метки
2015 , david gilmour , progressive rock , rattle that lock

Опции темы

Ваши права в разделе
Вы не можете создавать новые темы
Вы не можете отвечать в темах
Вы не можете прикреплять вложения
Вы не можете редактировать свои сообщения

Быстрый переход



Текущее время: 01:17. Часовой пояс GMT +3.
Powered by vBulletin® Version 3.8.10
Copyright ©2000 - 2018, vBulletin Solutions, Inc. Перевод: zCarot
© 2008 - 2018 Taifun With Song
Яндекс.Метрика