TAIFUN With Song
Навигация
Вернуться   TAIFUN With Song > Music (обменник) > Rock > Art Rock
Расширенный поиск
Art Rock ART ROCK - под этим термином подразумевается такая форма рока, в которой совмещаются электронное звучание, ритм-энд-блюз, восточный и средневековый европейский фольклор, классика и джаз

А знаете ли Вы, что...
Сколько музыкантов и композиторов произошло из семьи Бахов?
«Иоганн Себастьян Бах был не единственным талантом в своей семье. Бахи дали миру более 50 известных музыкантов и несколько замечательных композиторов. Сам Иоганн Себастьян был признан наиболее выдающимся из них намного позже своей смерти. В последние же годы жизни Иоганна Себастьяна его больше почитали за воспитание Бахов-младших, в первую очередь Карла Филиппа Эммануила, музыка которого была известнее.»
 
Опции темы

  #1
Старый 07.12.2017, 06:29
sergych
Координатор
Досье
 
Аватар для sergych
Релиз Kate Bush - The Kick Inside


1978 - Kate Bush - The Kick Inside




Исполнитель/Artist: Kate Bush
Альбом/Album: The Kick Inside
Год/Year: 1978
Ремастеринг/Remaster: 2015
Жанр/Genre: Art rock, alternative rock, baroque pop
Страна/Country: Германия
Рекорд-лейбл/Record label: Parlophone
Номер в каталоге/Catalogue #: 0777 7 46012 2 1
Формат/Format: Free Lossless Audio Codec (*.flac)
Качество/Quality: Lossless
Тип рипа/RIP Type: image+.cue
Продолжительность/Length: 00:43:12
Источник/Source: Собственный рип
Размер/Size: 277 MB

Сканы в комплекте

Треклист

01. Moving [0:03:01.72]
02. The Saxophone Song [0:03:52.63]
03. Strange Phenomena [0:02:58.52]
04. Kite [0:02:57.00]
05. The Man With The Child In His Eyes [0:02:41.00]
06. Wuthering Heights [0:04:29.05]
07. James And The Cold Gun [0:03:36.38]
08. Feel It [0:03:02.65]
09. Oh To Be In Love [0:03:18.07]
10. L'Amour Looks Something Like You [0:02:28.48]
11. Them Heavy People [0:03:05.30]
12. Room For The Life [0:04:05.42]
13. The Kick Inside [0:03:34.58]
[свернуть]

youtube.com

[свернуть]

Исполнители/Performers

Kate Bush – songwriter, composer, piano, keyboards, vocals, background vocals
Ian Bairnson – guitar (1, 3, 4, 6, 7, 9, 10, 11, 12), background vocals (9), beer bottles (12)
Paul Keogh – guitar (2)
Alan Parker – guitar (2)
Paddy Bush – mandolin (9), vocals (11)
Duncan Mackay – organ (4, 6, 7), synthesizer (3), electric piano (1, 10), clavinet (4)
Andrew Powell – synthesizer (9), keyboards (2), bass (6), electric piano (3), celesta (6), beer bottles (12), producer
Alan Skidmore – saxophone (2)
David Paton – bass (1, 3, 4, 7, 9, 10, 11, 12), acoustic guitar (6, 9), background vocals (9)
Bruce Lynch – bass (2)
Barry DeSouza – drums (2)
Stuart Elliott – drums (1, 3, 4, 6, 7, 9, 10, 11, 12), percussion (9, 12)
Morris Pert – percussion (3, 4, 6), boobam (12)
[свернуть]

EAC лог

Exact Audio Copy V1.3 from 2. September 2016

EAC extraction logfile from 29. November 2017, 21:41

Kate Bush / The Kick Inside

Used drive : ATAPI iHAS124 D Adapter: 0 ID: 2

Read mode : Secure
Utilize accurate stream : Yes
Defeat audio cache : Yes
Make use of C2 pointers : No

Read offset correction : 6
Overread into Lead-In and Lead-Out : No
Fill up missing offset samples with silence : Yes
Delete leading and trailing silent blocks : No
Null samples used in CRC calculations : Yes
Used interface : Installed external ASPI interface

Used output format : User Defined Encoder
Selected bitrate : 1024 kBit/s
Quality : High
Add ID3 tag : No
Command line compressor : C:\Program Files (x86)\Exact Audio Copy\Flac\flac.exe
Additional command line options : -6 -V -T "ARTIST=%artist%" -T "TITLE=%title%" -T "ALBUM=%albumtitle%" -T "DATE=%year%" -T "TRACKNUMBER=%tracknr%" -T "GENRE=%genre%" -T "COMMENT=%comment%" -T "BAND=%albuminterpret%" -T "ALBUMARTIST=%albuminterpret%" -T "COMPOSER=%composer%" %haslyrics%--tag-from-file=LYRICS="%lyricsfile%"%haslyrics% -T "DISCNUMBER=%cdnumber%" -T "TOTALDISCS=%totalcds%" -T "TOTALTRACKS=%numtracks%" %hascover%--picture="%coverfile%"%hascover% %source% -o %dest%


TOC of the extracted CD

Track | Start | Length | Start sector | End sector
---------------------------------------------------------
1 | 0:00.33 | 3:01.72 | 33 | 13679
2 | 3:02.30 | 3:52.63 | 13680 | 31142
3 | 6:55.18 | 2:58.52 | 31143 | 44544
4 | 9:53.70 | 2:57.00 | 44545 | 57819
5 | 12:50.70 | 2:41.00 | 57820 | 69894
6 | 15:31.70 | 4:29.05 | 69895 | 90074
7 | 20:01.00 | 3:36.38 | 90075 | 106312
8 | 23:37.38 | 3:02.65 | 106313 | 120027
9 | 26:40.28 | 3:18.07 | 120028 | 134884
10 | 29:58.35 | 2:28.48 | 134885 | 146032
11 | 32:27.08 | 3:05.30 | 146033 | 159937
12 | 35:32.38 | 4:05.42 | 159938 | 178354
13 | 39:38.05 | 3:34.58 | 178355 | 194462


Range status and errors

Selected range

Filename C:\mm\Kate Bush\1978 - The Kick Inside [0777 7 46012 2 1]\Kate Bush - The Kick Inside.wav

Peak level 100.0 %
Extraction speed 8.2 X
Range quality 100.0 %
Test CRC 54F36CD4
Copy CRC 54F36CD4
Copy OK

No errors occurred


AccurateRip summary

Track 1 cannot be verified as accurate (confidence 200) [4F24C482], AccurateRip returned [7E7C7060] (AR v2)
Track 2 cannot be verified as accurate (confidence 200) [8D4C953A], AccurateRip returned [7F30E357] (AR v2)
Track 3 cannot be verified as accurate (confidence 200) [CA2E5268], AccurateRip returned [0B9138E4] (AR v2)
Track 4 cannot be verified as accurate (confidence 200) [D9463A98], AccurateRip returned [B9787E67] (AR v2)
Track 5 cannot be verified as accurate (confidence 200) [5291EB73], AccurateRip returned [6E3201E2] (AR v2)
Track 6 cannot be verified as accurate (confidence 200) [A9C443F6], AccurateRip returned [DAEF68C4] (AR v2)
Track 7 cannot be verified as accurate (confidence 200) [71583D20], AccurateRip returned [7D1775EE] (AR v2)
Track 8 cannot be verified as accurate (confidence 200) [B22DE7E9], AccurateRip returned [B31C8CB0] (AR v2)
Track 9 cannot be verified as accurate (confidence 200) [D494B56E], AccurateRip returned [02CE9CA7] (AR v2)
Track 10 cannot be verified as accurate (confidence 200) [EEAD298D], AccurateRip returned [A41457D2] (AR v2)
Track 11 cannot be verified as accurate (confidence 200) [C8662ED5], AccurateRip returned [A01A761B] (AR v2)
Track 12 cannot be verified as accurate (confidence 200) [CD7B181E], AccurateRip returned [3375578C] (AR v2)
Track 13 cannot be verified as accurate (confidence 200) [A26167BA], AccurateRip returned [BA779F13] (AR v2)

No tracks could be verified as accurate
You may have a different pressing from the one(s) in the database

End of status report

---- CUETools DB Plugin V2.1.6

[CTDB TOCID: pcqRY4ScJAqkf0Xd2GWyYGrNFFU-] found
Submit result: pcqRY4ScJAqkf0Xd2GWyYGrNFFU- has been confirmed
Track | CTDB Status
1 | (1467/1505) Accurately ripped, or (2/1505) differs in 2 samples @00:01:58
2 | (1477/1505) Accurately ripped
3 | (1480/1505) Accurately ripped
4 | (1469/1505) Accurately ripped
5 | (1475/1505) Accurately ripped
6 | (1480/1505) Accurately ripped
7 | (1481/1505) Accurately ripped
8 | (1474/1505) Accurately ripped, or (2/1505) differs in 23 samples @02:16:22,02:16:36-02:16:37
9 | (1472/1505) Accurately ripped
10 | (1475/1505) Accurately ripped, or (2/1505) differs in 58 samples @01:03:29-01:03:30
11 | (1471/1505) Accurately ripped
12 | (1467/1505) Accurately ripped, or (2/1505) differs in 81 samples @03:27:11,03:27:27,03:28:17
13 | (1461/1505) Accurately ripped, or (2/1505) differs in 256 samples @00:44:29,02:44:55-02:44:56,02:44:72,02:45:14,02:45:30-02:45:31,02:45:64,02:47:64-02:47:65,02:52:42
[свернуть]

Файл CUE

REM GENRE Rock
REM DATE 1978
REM DISCID A20A200D
REM COMMENT "ExactAudioCopy v1.3"
PERFORMER "Kate Bush"
TITLE "The Kick Inside"
REM COMPOSER ""
FILE "Kate Bush - The Kick Inside.flac" WAVE
TRACK 01 AUDIO
TITLE "Moving"
PERFORMER "Kate Bush"
REM COMPOSER ""
INDEX 00 00:00:00
INDEX 01 00:00:33
TRACK 02 AUDIO
TITLE "The Saxophone Song"
PERFORMER "Kate Bush"
REM COMPOSER ""
INDEX 01 03:02:30
TRACK 03 AUDIO
TITLE "Strange Phenomena"
PERFORMER "Kate Bush"
REM COMPOSER ""
INDEX 01 06:55:18
TRACK 04 AUDIO
TITLE "Kite"
PERFORMER "Kate Bush"
REM COMPOSER ""
INDEX 01 09:53:70
TRACK 05 AUDIO
TITLE "The Man With The Child In His Eyes"
PERFORMER "Kate Bush"
REM COMPOSER ""
INDEX 01 12:50:70
TRACK 06 AUDIO
TITLE "Wuthering Heights"
PERFORMER "Kate Bush"
REM COMPOSER ""
INDEX 01 15:31:70
TRACK 07 AUDIO
TITLE "James And The Cold Gun"
PERFORMER "Kate Bush"
REM COMPOSER ""
INDEX 01 20:01:00
TRACK 08 AUDIO
TITLE "Feel It"
PERFORMER "Kate Bush"
REM COMPOSER ""
INDEX 01 23:37:38
TRACK 09 AUDIO
TITLE "Oh To Be In Love"
PERFORMER "Kate Bush"
REM COMPOSER ""
INDEX 01 26:40:28
TRACK 10 AUDIO
TITLE "L'Amour Looks Something Like You"
PERFORMER "Kate Bush"
REM COMPOSER ""
INDEX 01 29:58:35
TRACK 11 AUDIO
TITLE "Them Heavy People"
PERFORMER "Kate Bush"
REM COMPOSER ""
INDEX 01 32:27:08
TRACK 12 AUDIO
TITLE "Room For The Life"
PERFORMER "Kate Bush"
REM COMPOSER ""
INDEX 01 35:32:38
TRACK 13 AUDIO
TITLE "The Kick Inside"
PERFORMER "Kate Bush"
REM COMPOSER ""
INDEX 01 39:38:05
[свернуть]

Лог проверки качества

AUDIOCHECKER v2.0 beta (build 457) - by Dester -
~~~~~~~~~~~~~~~~~~~~~~~~~~~~~~~~~~
-=== НЕ РЕДАКТИРУЙТЕ ЭТОТ ФАЙЛ! ===-

Путь: ...\1978 - The Kick Inside [0777 7 46012 2 1]

1 -=- Kate Bush - The Kick Inside.flac -=- CDDA (100%)

71830804
[свернуть]

Спектр частот

[свернуть]

Скачать Kate Bush - The Kick Inside



password: sergych
[свернуть]

Контрольная сумма (хеш-сумма) архива

MD5: 3b67756d3043474207075f6fc9b0b4be
[свернуть]
My opinion of release: 9/10
__________________
TAIFUN.Wings of Soul

Вверх
2 пользователя(ей) сказали cпасибо:
johnsilver (07.12.2017), swint68 (07.12.2017)
Похожие темы
Тема Автор Раздел Ответов Последнее сообщение
Альбом Kate Bush - The Red Shoes sergych Art Rock 0 06.11.2017 07:20
Альбом Kate Bush - Hounds Of Love sergych Art Rock 2 30.08.2017 01:20
Сборник Kate Bush - Gold Ballads henrik Alternative Rock 3 05.06.2017 21:57
Сборник Kate Bush - The Whole Story sergych Art Rock 1 04.06.2017 13:14
Альбом Kate Bush - The Sensual World sergych Art Rock 0 22.04.2017 08:39


Метки
1978 , alternative rock , art rock , baroque pop , kate bush , the kick inside

Опции темы

Ваши права в разделе
Вы не можете создавать новые темы
Вы не можете отвечать в темах
Вы не можете прикреплять вложения
Вы не можете редактировать свои сообщения

Быстрый переход



Текущее время: 04:14. Часовой пояс GMT +3.
Powered by vBulletin® Version 3.8.10
Copyright ©2000 - 2017, vBulletin Solutions, Inc. Перевод: zCarot
© 2008 - 2017 Taifun With Song
Яндекс.Метрика