TAIFUN With Song
Навигация
R&B Ссылки на музыку в этом стиле

А знаете ли Вы, что...
Какой знаменитый музыкант играл в метро, и люди почти не проявили интерес к его музыке?
«Один из лучших скрипачей американец Джошуа Белл 12 января 2007 года согласился принять участие в эксперименте — утром на протяжении 45 минут он играл в вестибюле станции метро под видом обычного уличного музыканта. Из тысячи прошедших мимо людей только семь заинтересовались музыкой.»
 
Опции темы

  #1
Старый 05.12.2017, 18:05
sergych
Координатор
Досье
 
Аватар для sergych
Релиз Craig David - Born To Do It


2000 - Craig David - Born To Do It




Исполнитель/Artist: Craig David
Альбом/Album: Born To Do It
Год/Year: 2000
Жанр/Genre: R&B, soul, hip hop, pop
Страна/Country: Япония
Рекорд-лейбл/Record label: Telstar Records
Номер в каталоге/Catalogue #: VICP-61086
Формат/Format: Free Lossless Audio Codec (*.flac)
Качество/Quality: Lossless
Тип рипа/RIP Type: image+.cue
Продолжительность/Length: 00:56:14
Источник/Source: Собственный рип
Размер/Size: 472.6 MB

Сканы в комплекте

Треклист

01. Fill Me In [0:04:17.47]
02. Can't Be Messing 'Round [0:03:54.73]
03. Rendezvous [0:04:37.32]
04. 7 Days [0:03:56.08]
05. Follow Me [0:04:00.65]
06. Last Night [0:04:32.05]
07. Walking Away [0:03:26.10]
08. Time To Party [0:04:04.67]
09. Booty Man [0:03:47.15]
10. Once In A Lifetime [0:03:29.28]
11. You Know What [0:03:48.07]
12. Fill Me In (Artful Dodger Mix) [0:06:25.30]
13. Fill Me In (Sunship Vocal Mix) [0:05:54.00]
[свернуть]

youtube.com

[свернуть]

Исполнители/Performers

Craig David – composer, primary artist, producer, vocals
F Zagaroli, V. Hallett – vocals
Mark Hill – composer, mixing, producer, vocals, vocals (background), engineer
Wayne Lawes – drum programming, producer, programming, remixing, vocal producer
[свернуть]

EAC лог

Exact Audio Copy V1.3 from 2. September 2016

EAC extraction logfile from 5. December 2017, 8:32

Craig David / Born To Do It

Used drive : ATAPI iHAS124 D Adapter: 0 ID: 2

Read mode : Secure
Utilize accurate stream : Yes
Defeat audio cache : Yes
Make use of C2 pointers : No

Read offset correction : 6
Overread into Lead-In and Lead-Out : No
Fill up missing offset samples with silence : Yes
Delete leading and trailing silent blocks : No
Null samples used in CRC calculations : Yes
Used interface : Installed external ASPI interface

Used output format : User Defined Encoder
Selected bitrate : 1024 kBit/s
Quality : High
Add ID3 tag : No
Command line compressor : C:\Program Files (x86)\Exact Audio Copy\Flac\flac.exe
Additional command line options : -6 -V -T "ARTIST=%artist%" -T "TITLE=%title%" -T "ALBUM=%albumtitle%" -T "DATE=%year%" -T "TRACKNUMBER=%tracknr%" -T "GENRE=%genre%" -T "COMMENT=%comment%" -T "BAND=%albuminterpret%" -T "ALBUMARTIST=%albuminterpret%" -T "COMPOSER=%composer%" %haslyrics%--tag-from-file=LYRICS="%lyricsfile%"%haslyrics% -T "DISCNUMBER=%cdnumber%" -T "TOTALDISCS=%totalcds%" -T "TOTALTRACKS=%numtracks%" %hascover%--picture="%coverfile%"%hascover% %source% -o %dest%


TOC of the extracted CD

Track | Start | Length | Start sector | End sector
---------------------------------------------------------
1 | 0:00.00 | 4:17.47 | 0 | 19321
2 | 4:17.47 | 3:54.73 | 19322 | 36944
3 | 8:12.45 | 4:37.32 | 36945 | 57751
4 | 12:50.02 | 3:56.08 | 57752 | 75459
5 | 16:46.10 | 4:00.65 | 75460 | 93524
6 | 20:47.00 | 4:32.05 | 93525 | 113929
7 | 25:19.05 | 3:26.10 | 113930 | 129389
8 | 28:45.15 | 4:04.67 | 129390 | 147756
9 | 32:50.07 | 3:47.15 | 147757 | 164796
10 | 36:37.22 | 3:29.28 | 164797 | 180499
11 | 40:06.50 | 3:48.07 | 180500 | 197606
12 | 43:54.57 | 6:25.30 | 197607 | 226511
13 | 50:20.12 | 5:54.00 | 226512 | 253061


Range status and errors

Selected range

Filename C:\mm\Craig David\2000 - Born To Do It [VICP-61086]\Craig David - Born To Do It.wav

Peak level 98.8 %
Extraction speed 8.6 X
Range quality 100.0 %
Test CRC A56DA132
Copy CRC A56DA132
Copy OK

No errors occurred


AccurateRip summary

Track 1 not present in database
Track 2 not present in database
Track 3 not present in database
Track 4 not present in database
Track 5 not present in database
Track 6 not present in database
Track 7 not present in database
Track 8 not present in database
Track 9 not present in database
Track 10 not present in database
Track 11 not present in database
Track 12 not present in database
Track 13 not present in database

None of the tracks are present in the AccurateRip database

End of status report

---- CUETools DB Plugin V2.1.6

[CTDB TOCID: zoa8KDuM0m6mI0fJ0IyHwaEdOHk-] found
Submit result: zoa8KDuM0m6mI0fJ0IyHwaEdOHk- has been confirmed
Track | CTDB Status
1 | (3/3) Accurately ripped
2 | (3/3) Accurately ripped
3 | (3/3) Accurately ripped
4 | (3/3) Accurately ripped
5 | (3/3) Accurately ripped
6 | (3/3) Accurately ripped
7 | (3/3) Accurately ripped
8 | (3/3) Accurately ripped
9 | (3/3) Accurately ripped
10 | (3/3) Accurately ripped
11 | (3/3) Accurately ripped
12 | (3/3) Accurately ripped
13 | (3/3) Accurately ripped
[свернуть]

Файл CUE

REM GENRE R&B
REM DATE 2000
REM DISCID B40D2E0D
REM COMMENT "ExactAudioCopy v1.3"
PERFORMER "Craig David"
TITLE "Born To Do It"
REM COMPOSER ""
FILE "Craig David - Born To Do It.flac" WAVE
TRACK 01 AUDIO
TITLE "Fill Me In"
PERFORMER "Craig David"
REM COMPOSER ""
INDEX 01 00:00:00
TRACK 02 AUDIO
TITLE "Can't Be Messing 'Round"
PERFORMER "Craig David"
REM COMPOSER ""
INDEX 00 04:16:58
INDEX 01 04:17:47
TRACK 03 AUDIO
TITLE "Rendezvous"
PERFORMER "Craig David"
REM COMPOSER ""
INDEX 00 08:10:68
INDEX 01 08:12:45
TRACK 04 AUDIO
TITLE "7 Days"
PERFORMER "Craig David"
REM COMPOSER ""
INDEX 01 12:50:02
TRACK 05 AUDIO
TITLE "Follow Me"
PERFORMER "Craig David"
REM COMPOSER ""
INDEX 01 16:46:10
TRACK 06 AUDIO
TITLE "Last Night"
PERFORMER "Craig David"
REM COMPOSER ""
INDEX 01 20:47:00
TRACK 07 AUDIO
TITLE "Walking Away"
PERFORMER "Craig David"
REM COMPOSER ""
INDEX 01 25:19:05
TRACK 08 AUDIO
TITLE "Time To Party"
PERFORMER "Craig David"
REM COMPOSER ""
INDEX 00 28:43:53
INDEX 01 28:45:15
TRACK 09 AUDIO
TITLE "Booty Man"
PERFORMER "Craig David"
REM COMPOSER ""
INDEX 01 32:50:07
TRACK 10 AUDIO
TITLE "Once In A Lifetime"
PERFORMER "Craig David"
REM COMPOSER ""
INDEX 01 36:37:22
TRACK 11 AUDIO
TITLE "You Know What"
PERFORMER "Craig David"
REM COMPOSER ""
INDEX 01 40:06:50
TRACK 12 AUDIO
TITLE "Fill Me In (Artful Dodger Mix)"
PERFORMER "Craig David"
REM COMPOSER ""
INDEX 00 43:40:21
INDEX 01 43:54:57
TRACK 13 AUDIO
TITLE "Fill Me In (Sunship Vocal Mix)"
PERFORMER "Craig David"
REM COMPOSER ""
INDEX 00 50:16:53
INDEX 01 50:20:12
[свернуть]

Лог проверки качества

AUDIOCHECKER v2.0 beta (build 457) - by Dester -
~~~~~~~~~~~~~~~~~~~~~~~~~~~~~~~~~~
-=== НЕ РЕДАКТИРУЙТЕ ЭТОТ ФАЙЛ! ===-

Путь: ...\2000 - Born To Do It [VICP-61086]

1 -=- Craig David - Born To Do It.flac -=- CDDA (100%)

130762548
[свернуть]

Спектр частот

[свернуть]

Скачать Craig David - Born To Do It



password: sergych
[свернуть]

Контрольная сумма (хеш-сумма) архива

MD5: 8090804966fbc617212f3c3d1d820ca1
[свернуть]
My opinion of release: 10/10
__________________
TAIFUN.Wings of Soul

Вверх
Пользователь сказал cпасибо:
johnsilver (05.12.2017)
Похожие темы
Тема Автор Раздел Ответов Последнее сообщение
Сборник Craig David - Greatest Hits sergych R&B 1 26.10.2017 20:51
Альбом Craig David - The Story Goes... sergych R&B 0 24.08.2017 23:51
Альбом Craig David - Trust Me Alex1990 R&B 1 16.06.2009 13:44
Альбом Craig David - Slicker Than Your Average Alex1990 R&B 0 15.05.2008 12:49


Метки
2000 , born to do it , craig david , hip hop , pop , r&b , soul

Опции темы

Ваши права в разделе
Вы не можете создавать новые темы
Вы не можете отвечать в темах
Вы не можете прикреплять вложения
Вы не можете редактировать свои сообщения

Быстрый переход



Текущее время: 04:13. Часовой пояс GMT +3.
Powered by vBulletin® Version 3.8.10
Copyright ©2000 - 2017, vBulletin Solutions, Inc. Перевод: zCarot
© 2008 - 2017 Taifun With Song
Яндекс.Метрика