TAIFUN With Song
Навигация
R&B Ссылки на музыку в этом стиле

А знаете ли Вы, что...
Каким образом в Древнем Китае для определения эталона длины применяли колокол?
«В Древнем Китае эталоном меры длины служил специальный колокол, настроенный на заданную высоту звучания. В другом приспособлении натягивалась струна, чтобы её звук соответствовал данной высоте, и получившаяся длина струны принималась за эталон.»
 
Опции темы

  #1
Старый 03.12.2017, 21:47
sergych
Координатор
Досье
 
Аватар для sergych
Релиз Mariah Carey - Emotions


1991 - Mariah Carey - Emotions




Исполнитель/Artist: Mariah Carey
Альбом/Album: Emotions
Год/Year: 1991
Жанр/Genre: R&B, pop, hip-hop
Страна/Country: Австрия
Рекорд-лейбл/Record label: Sony Music
Номер в каталоге/Catalogue #: 468851 2
Формат/Format: Free Lossless Audio Codec (*.flac)
Качество/Quality: Lossless
Тип рипа/RIP Type: image+.cue
Продолжительность/Length: 00:47:02
Источник/Source: Собственный рип
Размер/Size: 357.1 MB

Сканы в комплекте

Треклист

01. Emotions [0:04:08.57]
02. And You Don't Remember [0:04:26.55]
03. Can't Let Go [0:04:27.48]
04. Make It Happen [0:05:07.70]
05. If It's Over [0:04:38.12]
06. You're So Cold [0:05:05.43]
07. So Blessed [0:04:13.02]
08. To Be Around You [0:04:37.50]
09. Till the End of Time [0:05:35.15]
10. The Wind [0:04:41.48]
[свернуть]

youtube.com

[свернуть]

Исполнители/Performers

Mariah Carey – arranger, mixing, producer, vocal arrangement, vocals, background vocals
Walter Afanasieff – acoustic guitar, arranger, bass, drums, horn arrangements, grand piano, keyboards, organ, organ (Hammond), percussion, piano, producer, programming, strings, synclavier, synthesizer, synthesizer bass, tambourine, vibraphone, vocal arrangement
Cornell Dupree, Michael Landau, Paul Pesco, Vernon "Ice" Black – guitar
Gary Cirimelli – programming, synclavier
Robert Clivillés – arranger, drums, keyboard arrangements, mixing, producer
David Cole – arranger, background vocals, keyboard arrangements, keyboards, mixing, producer
Lew Del Gatto – baritone saxophone, horn arrangements
George Young, Lawrence Feldman – tenor saxophone
Earl Gardner – trumpet
Keith O'Quinn – trombone
Carl James – bass guitar
Ren Klyce – programming, synclavier, synthesizer
Will Lee – bass
Cindy Mizelle, Patrique McMillian, Trey Lorenz – background vocals
Steve Smith – drums
[свернуть]

EAC лог

Exact Audio Copy V1.3 from 2. September 2016

EAC extraction logfile from 3. December 2017, 20:14

Mariah Carey / Emotions

Used drive : ATAPI iHAS124 D Adapter: 0 ID: 2

Read mode : Secure
Utilize accurate stream : Yes
Defeat audio cache : Yes
Make use of C2 pointers : No

Read offset correction : 6
Overread into Lead-In and Lead-Out : No
Fill up missing offset samples with silence : Yes
Delete leading and trailing silent blocks : No
Null samples used in CRC calculations : Yes
Used interface : Installed external ASPI interface

Used output format : User Defined Encoder
Selected bitrate : 1024 kBit/s
Quality : High
Add ID3 tag : No
Command line compressor : C:\Program Files (x86)\Exact Audio Copy\Flac\flac.exe
Additional command line options : -6 -V -T "ARTIST=%artist%" -T "TITLE=%title%" -T "ALBUM=%albumtitle%" -T "DATE=%year%" -T "TRACKNUMBER=%tracknr%" -T "GENRE=%genre%" -T "COMMENT=%comment%" -T "BAND=%albuminterpret%" -T "ALBUMARTIST=%albuminterpret%" -T "COMPOSER=%composer%" %haslyrics%--tag-from-file=LYRICS="%lyricsfile%"%haslyrics% -T "DISCNUMBER=%cdnumber%" -T "TOTALDISCS=%totalcds%" -T "TOTALTRACKS=%numtracks%" %hascover%--picture="%coverfile%"%hascover% %source% -o %dest%


TOC of the extracted CD

Track | Start | Length | Start sector | End sector
---------------------------------------------------------
1 | 0:00.00 | 4:08.57 | 0 | 18656
2 | 4:08.57 | 4:26.55 | 18657 | 38661
3 | 8:35.37 | 4:27.48 | 38662 | 58734
4 | 13:03.10 | 5:07.70 | 58735 | 81829
5 | 18:11.05 | 4:38.12 | 81830 | 102691
6 | 22:49.17 | 5:05.43 | 102692 | 125609
7 | 27:54.60 | 4:13.02 | 125610 | 144586
8 | 32:07.62 | 4:37.50 | 144587 | 165411
9 | 36:45.37 | 5:35.15 | 165412 | 190551
10 | 42:20.52 | 4:41.48 | 190552 | 211674


Range status and errors

Selected range

Filename C:\mm\Mariah Carey\1991 - Emotions [468851 2]\Mariah Carey - Emotions.wav

Peak level 95.5 %
Extraction speed 8.2 X
Range quality 99.9 %
Test CRC FEAFD354
Copy CRC FEAFD354
Copy OK

No errors occurred


AccurateRip summary

Track 1 accurately ripped (confidence 200) [A7D81A22] (AR v2)
Track 2 accurately ripped (confidence 200) [C2AFA122] (AR v2)
Track 3 accurately ripped (confidence 200) [CC0F7B98] (AR v2)
Track 4 accurately ripped (confidence 200) [10B107EF] (AR v2)
Track 5 accurately ripped (confidence 200) [00FDD5AE] (AR v2)
Track 6 accurately ripped (confidence 200) [B27C3A60] (AR v2)
Track 7 accurately ripped (confidence 200) [96025C4C] (AR v2)
Track 8 accurately ripped (confidence 200) [34FCEDE3] (AR v2)
Track 9 accurately ripped (confidence 200) [1348DE14] (AR v2)
Track 10 accurately ripped (confidence 200) [CB391292] (AR v2)

All tracks accurately ripped

End of status report

---- CUETools DB Plugin V2.1.6

[CTDB TOCID: o_UwpsSba4sppyB65vcQmeDqVYg-] found
Submit result: o_UwpsSba4sppyB65vcQmeDqVYg- has been confirmed
Track | CTDB Status
1 | (493/499) Accurately ripped
2 | (494/499) Accurately ripped
3 | (495/499) Accurately ripped
4 | (494/499) Accurately ripped
5 | (494/499) Accurately ripped
6 | (492/499) Accurately ripped
7 | (493/499) Accurately ripped
8 | (494/499) Accurately ripped
9 | (494/499) Accurately ripped
10 | (492/499) Accurately ripped
[свернуть]

Файл CUE

REM GENRE Pop
REM DATE 1991
REM DISCID 840B060A
REM COMMENT "ExactAudioCopy v1.3"
PERFORMER "Mariah Carey"
TITLE "Emotions"
REM COMPOSER ""
FILE "Mariah Carey - Emotions.flac" WAVE
TRACK 01 AUDIO
TITLE "Emotions"
PERFORMER "Mariah Carey"
REM COMPOSER ""
INDEX 01 00:00:00
TRACK 02 AUDIO
TITLE "And You Don't Remember"
PERFORMER "Mariah Carey"
REM COMPOSER ""
INDEX 00 04:08:32
INDEX 01 04:08:57
TRACK 03 AUDIO
TITLE "Can't Let Go"
PERFORMER "Mariah Carey"
REM COMPOSER ""
INDEX 00 08:34:62
INDEX 01 08:35:37
TRACK 04 AUDIO
TITLE "Make It Happen"
PERFORMER "Mariah Carey"
REM COMPOSER ""
INDEX 00 13:02:27
INDEX 01 13:03:10
TRACK 05 AUDIO
TITLE "If It's Over"
PERFORMER "Mariah Carey"
REM COMPOSER ""
INDEX 00 18:10:35
INDEX 01 18:11:05
TRACK 06 AUDIO
TITLE "You're So Cold"
PERFORMER "Mariah Carey"
REM COMPOSER ""
INDEX 00 22:48:37
INDEX 01 22:49:17
TRACK 07 AUDIO
TITLE "So Blessed"
PERFORMER "Mariah Carey"
REM COMPOSER ""
INDEX 00 27:54:05
INDEX 01 27:54:60
TRACK 08 AUDIO
TITLE "To Be Around You"
PERFORMER "Mariah Carey"
REM COMPOSER ""
INDEX 00 32:07:30
INDEX 01 32:07:62
TRACK 09 AUDIO
TITLE "Till the End of Time"
PERFORMER "Mariah Carey"
REM COMPOSER ""
INDEX 00 36:44:37
INDEX 01 36:45:37
TRACK 10 AUDIO
TITLE "The Wind"
PERFORMER "Mariah Carey"
REM COMPOSER ""
INDEX 01 42:20:52
[свернуть]

Лог проверки качества

AUDIOCHECKER v2.0 beta (build 457) - by Dester -
~~~~~~~~~~~~~~~~~~~~~~~~~~~~~~~~~~
-=== НЕ РЕДАКТИРУЙТЕ ЭТОТ ФАЙЛ! ===-

Путь: ...\1991 - Emotions [468851 2]

1 -=- Mariah Carey - Emotions.flac -=- CDDA (99%)

224872820
[свернуть]

Спектр частот

[свернуть]

Скачать Mariah Carey - Emotions



password: sergych
[свернуть]

Контрольная сумма (хеш-сумма) архива

MD5: 72b9b38e39ddf828c6a53236f718fd9f
[свернуть]
My opinion of release: 10/10
__________________
TAIFUN.Wings of Soul

Вверх
3 пользователя(ей) сказали cпасибо:
Показать список поблагодаривших
Похожие темы
Тема Автор Раздел Ответов Последнее сообщение
Сборник Mariah Carey - #1's sergych R&B 1 14.10.2017 23:35
Live Mariah Carey - Without You sergych R&B 4 25.07.2017 22:07
Альбом Mariah Carey - Me. I Am Mariah... The Elusive Chanteuse sergych R&B 1 08.05.2017 20:35
Альбом Mariah Carey - Mariah Carey sergych R&B 0 17.09.2015 20:37
Альбом Mariah Carey - E=MC2 LUСIAN R&B 0 20.04.2008 00:25


Метки
1991 , emotions , hip-hop , mariah carey , pop , r&b

Опции темы

Ваши права в разделе
Вы не можете создавать новые темы
Вы не можете отвечать в темах
Вы не можете прикреплять вложения
Вы не можете редактировать свои сообщения

Быстрый переход



Текущее время: 04:13. Часовой пояс GMT +3.
Powered by vBulletin® Version 3.8.10
Copyright ©2000 - 2017, vBulletin Solutions, Inc. Перевод: zCarot
© 2008 - 2017 Taifun With Song
Яндекс.Метрика