TAIFUN With Song
Навигация
Вернуться   TAIFUN With Song > Music (обменник) > Rock > Hard Rock
Расширенный поиск
Hard Rock То, что может восприниматься слушателем как «тяжесть» в хард-роке, достигается, в частности, за счет специфического звучания электрогитары (с такими эффектами, как например, дисторшн и овердрайв) и работы ритм-секции. «Классический» хард-рок обрёл формы в конце 1960-х — начале 1970-х годов в Великобритании. Классический хард-рок отличается от хеви-металла более мелодичным звучанием.

А знаете ли Вы, что...
Какой наркотик, по распространённому мнению, оказал прямое влияние на выбор названия одной из песен Beatles?
«Когда Beatles записали песню "Lucy in the Sky with Diamonds", Джон Леннон объяснил происхождение названия песни тем, что так окрестил свой рисунок его сын Джулиан. Однако многие усмотрели в этом названии намёк на наркотик LSD, ведь именно такая аббревиатура складывалась из его первых букв, а BBC и вовсе запретило песню к ротации. Позже Пол Маккартни рассказал, что влияние LSD на эту песню довольно очевидно.»
 
Опции темы

  #1
Старый 12.03.2017, 20:04
sergych
Координатор
Досье
 
Аватар для sergych
Thumbs up Queen - In Vision


2000 - Queen - In Vision




Исполнитель/Artist: Queen
Альбом/Album: In Vision
Год/Year: 2000
Жанр/Genre: Rock, hard rock
Страна/Country: Япония
Рекорд-лейбл/Record label: Parlophone / Toshiba EMI
Номер в каталоге/Catalogue #: TOCP-65455
Формат/Format: MPEG Layer-3 (*.mp3)
Качество/Quality: CBR 320 kbps
Тип рипа/RIP Type: image+.cue
Продолжительность/Length: 00:42:43
Источник/Source: Собственный рип
Размер/Size: 223.2 MB

Сканы в комплекте

Треклист

01. Bohemian Rhapsody [0:05:56.02]
02. Don't Stop Me Now [0:03:31.20]
03. I Was Born To Love You [0:04:51.58]
04. You're My Best Friend [0:02:51.37]
05. Now I'm Here [0:04:14.63]
06. We Will Rock You [0:02:01.70]
07. We Are The Champions [0:03:02.47]
08. Flash [0:02:49.13]
09. One Vision [0:04:04.02]
10. A Kind Of Magic [0:04:22.65]
11. Who Wants To Live Forever [0:04:56.50]
[свернуть]

youtube.com

[свернуть]

Файл CUE

TITLE "In Vision"
PERFORMER "Queen"
REM GENRE "Rock"
REM DATE "2000"
REM DISCNUMBER "1/1"
FILE "In Vision.mp3" MP3
TRACK 01 AUDIO
INDEX 01 00:00:00
TITLE "Bohemian Rhapsody"
REM COMMENT "ExactAudioCopy v1.2"
REM COMPOSER ""
TRACK 02 AUDIO
INDEX 01 05:56:02
TITLE "Don't Stop Me Now"
REM COMMENT "ExactAudioCopy v1.2"
REM COMPOSER ""
TRACK 03 AUDIO
INDEX 01 09:27:21
TITLE "I Was Born To Love You"
REM COMMENT "ExactAudioCopy v1.2"
REM COMPOSER ""
TRACK 04 AUDIO
INDEX 01 14:19:05
TITLE "You're My Best Friend"
REM COMMENT "ExactAudioCopy v1.2"
REM COMPOSER ""
TRACK 05 AUDIO
INDEX 01 17:10:41
TITLE "Now I'm Here"
REM COMMENT "ExactAudioCopy v1.2"
REM COMPOSER ""
TRACK 06 AUDIO
INDEX 01 21:25:30
TITLE "We Will Rock You"
REM COMMENT "ExactAudioCopy v1.2"
REM COMPOSER ""
TRACK 07 AUDIO
INDEX 01 23:27:24
TITLE "We Are The Champions"
REM COMMENT "ExactAudioCopy v1.2"
REM COMPOSER ""
TRACK 08 AUDIO
INDEX 01 26:29:72
TITLE "Flash"
REM COMMENT "ExactAudioCopy v1.2"
REM COMPOSER ""
TRACK 09 AUDIO
INDEX 01 29:19:10
TITLE "One Vision"
REM COMMENT "ExactAudioCopy v1.2"
REM COMPOSER ""
TRACK 10 AUDIO
INDEX 01 33:23:12
TITLE "A Kind Of Magic"
REM COMMENT "ExactAudioCopy v1.2"
REM COMPOSER ""
TRACK 11 AUDIO
INDEX 01 37:46:01
TITLE "Who Wants To Live Forever"
REM COMMENT "ExactAudioCopy v1.2"
REM COMPOSER ""
[свернуть]

Скачать Queen - In Vision



password: sergych
[свернуть]

Контрольная сумма (хеш-сумма) архива

MD5: f70fa61cb881d792b2b2530b6491f32d
[свернуть]
My opinion of release: 10/10

Release info RInfo

"..Test CRC A504EF85
Copy CRC EB959DE2.." - поэтому lossless не выкладываю.
__________________
TAIFUN.Wings of Soul

Вверх
Пользователь сказал cпасибо:
swint68 (12.03.2017)
  #2
Старый 30.11.2017, 06:58
sergych
Координатор
Досье
 
Аватар для sergych
Релиз Re: Queen - In Vision


2000 - Queen - In Vision




Исполнитель/Artist: Queen
Альбом/Album: In Vision
Год/Year: 2000
Жанр/Genre: Rock, hard rock
Страна/Country: Япония
Рекорд-лейбл/Record label: Parlophone / Toshiba EMI
Номер в каталоге/Catalogue #: TOCP-65455
Формат/Format: Free Lossless Audio Codec (*.flac)
Качество/Quality: Lossless
Тип рипа/RIP Type: image+.cue
Продолжительность/Length: 00:42:43
Источник/Source: Собственный рип
Размер/Size: 369.9 MB

Сканы в комплекте

Треклист

01. Bohemian Rhapsody [0:05:56.02]
02. Don't Stop Me Now [0:03:31.20]
03. I Was Born To Love You [0:04:51.58]
04. You're My Best Friend [0:02:51.37]
05. Now I'm Here [0:04:14.63]
06. We Will Rock You [0:02:01.70]
07. We Are The Champions [0:03:02.47]
08. Flash [0:02:49.13]
09. One Vision [0:04:04.02]
10. A Kind Of Magic [0:04:22.65]
11. Who Wants To Live Forever [0:04:56.50]
[свернуть]

youtube.com

[свернуть]

EAC лог

Exact Audio Copy V1.3 from 2. September 2016

EAC extraction logfile from 29. November 2017, 8:24

Queen / In Vision

Used drive : ATAPI iHAS124 D Adapter: 0 ID: 2

Read mode : Secure
Utilize accurate stream : Yes
Defeat audio cache : Yes
Make use of C2 pointers : No

Read offset correction : 6
Overread into Lead-In and Lead-Out : No
Fill up missing offset samples with silence : Yes
Delete leading and trailing silent blocks : No
Null samples used in CRC calculations : Yes
Used interface : Installed external ASPI interface

Used output format : User Defined Encoder
Selected bitrate : 1024 kBit/s
Quality : High
Add ID3 tag : No
Command line compressor : C:\Program Files (x86)\Exact Audio Copy\Flac\flac.exe
Additional command line options : -6 -V -T "ARTIST=%artist%" -T "TITLE=%title%" -T "ALBUM=%albumtitle%" -T "DATE=%year%" -T "TRACKNUMBER=%tracknr%" -T "GENRE=%genre%" -T "COMMENT=%comment%" -T "BAND=%albuminterpret%" -T "ALBUMARTIST=%albuminterpret%" -T "COMPOSER=%composer%" %haslyrics%--tag-from-file=LYRICS="%lyricsfile%"%haslyrics% -T "DISCNUMBER=%cdnumber%" -T "TOTALDISCS=%totalcds%" -T "TOTALTRACKS=%numtracks%" %hascover%--picture="%coverfile%"%hascover% %source% -o %dest%


TOC of the extracted CD

Track | Start | Length | Start sector | End sector
---------------------------------------------------------
1 | 0:00.00 | 5:56.02 | 0 | 26701
2 | 5:56.02 | 3:31.20 | 26702 | 42546
3 | 9:27.22 | 4:51.58 | 42547 | 64429
4 | 14:19.05 | 2:51.37 | 64430 | 77291
5 | 17:10.42 | 4:14.63 | 77292 | 96404
6 | 21:25.30 | 2:01.70 | 96405 | 105549
7 | 23:27.25 | 3:02.47 | 105550 | 119246
8 | 26:29.72 | 2:49.13 | 119247 | 131934
9 | 29:19.10 | 4:04.02 | 131935 | 150236
10 | 33:23.12 | 4:22.65 | 150237 | 169951
11 | 37:46.02 | 4:56.50 | 169952 | 192201


Range status and errors

Selected range

Filename C:\mm\Queen\2000 - In Vision [TOCP-65455]\Queen - In Vision.wav

Peak level 99.9 %
Extraction speed 8.0 X
Range quality 99.9 %
Test CRC 5A32101F
Copy CRC 5A32101F
Copy OK

No errors occurred


AccurateRip summary

Track 1 accurately ripped (confidence 7) [35C953AD] (AR v2)
Track 2 accurately ripped (confidence 8) [53EF3517] (AR v2)
Track 3 accurately ripped (confidence 8) [4B177B0E] (AR v2)
Track 4 accurately ripped (confidence 8) [30E84A44] (AR v2)
Track 5 accurately ripped (confidence 8) [E73761BC] (AR v2)
Track 6 accurately ripped (confidence 8) [0159BDD3] (AR v2)
Track 7 accurately ripped (confidence 8) [F8B7E939] (AR v2)
Track 8 accurately ripped (confidence 8) [A8A96BB0] (AR v2)
Track 9 accurately ripped (confidence 7) [E62D6B94] (AR v2)
Track 10 accurately ripped (confidence 8) [1CAFBE66] (AR v2)
Track 11 accurately ripped (confidence 8) [A5C00769] (AR v2)

All tracks accurately ripped

End of status report

---- CUETools DB Plugin V2.1.6

[CTDB TOCID: FpFsOQn.vnrSkX5I5KXc7p3HI_s-] found
Submit result: FpFsOQn.vnrSkX5I5KXc7p3HI_s- has been confirmed
Track | CTDB Status
1 | (45/46) Accurately ripped
2 | (45/46) Accurately ripped
3 | (45/46) Accurately ripped
4 | (46/46) Accurately ripped
5 | (46/46) Accurately ripped
6 | (46/46) Accurately ripped
7 | (46/46) Accurately ripped
8 | (46/46) Accurately ripped
9 | (46/46) Accurately ripped
10 | (46/46) Accurately ripped
11 | (46/46) Accurately ripped
[свернуть]

Файл CUE

REM GENRE Rock
REM DATE 2000
REM DISCID 930A020B
REM COMMENT "ExactAudioCopy v1.3"
PERFORMER "Queen"
TITLE "In Vision"
REM COMPOSER ""
FILE "Queen - In Vision.flac" WAVE
TRACK 01 AUDIO
TITLE "Bohemian Rhapsody"
PERFORMER "Queen"
REM COMPOSER ""
INDEX 01 00:00:00
TRACK 02 AUDIO
TITLE "Don't Stop Me Now"
PERFORMER "Queen"
REM COMPOSER ""
INDEX 00 05:54:27
INDEX 01 05:56:02
TRACK 03 AUDIO
TITLE "I Was Born To Love You"
PERFORMER "Queen"
REM COMPOSER ""
INDEX 00 09:25:47
INDEX 01 09:27:22
TRACK 04 AUDIO
TITLE "You're My Best Friend"
PERFORMER "Queen"
REM COMPOSER ""
INDEX 00 14:17:30
INDEX 01 14:19:05
TRACK 05 AUDIO
TITLE "Now I'm Here"
PERFORMER "Queen"
REM COMPOSER ""
INDEX 00 17:08:67
INDEX 01 17:10:42
TRACK 06 AUDIO
TITLE "We Will Rock You"
PERFORMER "Queen"
REM COMPOSER ""
INDEX 00 21:23:55
INDEX 01 21:25:30
TRACK 07 AUDIO
TITLE "We Are The Champions"
PERFORMER "Queen"
REM COMPOSER ""
INDEX 00 23:26:50
INDEX 01 23:27:25
TRACK 08 AUDIO
TITLE "Flash"
PERFORMER "Queen"
REM COMPOSER ""
INDEX 00 26:28:22
INDEX 01 26:29:72
TRACK 09 AUDIO
TITLE "One Vision"
PERFORMER "Queen"
REM COMPOSER ""
INDEX 00 29:17:35
INDEX 01 29:19:10
TRACK 10 AUDIO
TITLE "A Kind Of Magic"
PERFORMER "Queen"
REM COMPOSER ""
INDEX 00 33:21:37
INDEX 01 33:23:12
TRACK 11 AUDIO
TITLE "Who Wants To Live Forever"
PERFORMER "Queen"
REM COMPOSER ""
INDEX 00 37:44:27
INDEX 01 37:46:02
[свернуть]

Лог проверки качества

AUDIOCHECKER v2.0 beta (build 457) - by Dester -
~~~~~~~~~~~~~~~~~~~~~~~~~~~~~~~~~~
-=== НЕ РЕДАКТИРУЙТЕ ЭТОТ ФАЙЛ! ===-

Путь: ...\2000 - In Vision [TOCP-65455]

1 -=- Queen - In Vision.flac -=- CDDA (100%)

28189940
[свернуть]

Спектр частот

[свернуть]

Скачать Queen - In Vision



password: sergych
[свернуть]

Контрольная сумма (хеш-сумма) архива

MD5: c0a89de301f39d050c339364053adbc7
[свернуть]
My opinion of release: 10/10

Release info RInfo

Вторая попытка приобретения этого издания оказалась более удачной и диск в лучшем состоянии, нежели предыдущий.
А прошлый диск пусть так в mp3 и лежит
__________________
TAIFUN.Wings of Soul

Вверх
2 пользователя(ей) сказали cпасибо:
johnsilver (30.11.2017), swint68 (30.11.2017)
Похожие темы
Тема Автор Раздел Ответов Последнее сообщение
Релиз Def Joint - D.VISION PUPOKIN Зарубежный 0 28.08.2009 12:50
Релиз Martigan - Vision PUPOKIN Progressive Rock 0 14.05.2009 12:54
Релиз De/Vision - Noob PUPOKIN Electro 0 17.02.2009 10:15
Сборник Queen - Queen Rocks PUPOKIN Hard Rock 0 13.01.2009 13:24
Twisted Vision DarkDan Psychedelic 0 20.04.2008 18:17


Метки
2000 , hard rock , in vision , queen , rock

Опции темы

Ваши права в разделе
Вы не можете создавать новые темы
Вы не можете отвечать в темах
Вы не можете прикреплять вложения
Вы не можете редактировать свои сообщения

Быстрый переход



Текущее время: 19:06. Часовой пояс GMT +3.
Powered by vBulletin® Version 3.8.10
Copyright ©2000 - 2018, vBulletin Solutions, Inc. Перевод: zCarot
© 2008 - 2018 Taifun With Song
Яндекс.Метрика