TAIFUN With Song
Country Кантри объединяет две разновидности американского фольклора — это музыка белых поселенцев, обосновавшихся в Новом Свете в XVII—XVIII вв. и ковбойские баллады Дикого Запада. В этой музыке сильно наследие елизаветинских мадригалов, ирландской и шотландской народной музыки. Основные музыкальные инструменты этого стиля — гитара, банджо и скрипка.

А знаете ли Вы, что...
Почему в английском хит-параде 1965 года песню ‘Yesterday’ исполняли не Beatles?
«Когда Пол Маккартни записывал песню ‘Yesterday’, профессиональные музыканты из аккомпанирующего ему струнного квартета назвали композицию семитактным неквадратным построением и сказали, что музыку так не пишут.»
 
Опции темы

  #1
Старый 09.08.2017, 20:29
sergych
Координатор
Досье
 
Аватар для sergych
Релиз Kenny Chesney - Hemingway's Whiskey


2010 - Kenny Chesney - Hemingway's Whiskey




Исполнитель/Artist: Kenny Chesney
Альбом/Album: Hemingway's Whiskey
Год/Year: 2010
Жанр/Genre: Country, Country rock
Страна/Country: Великобритания
Рекорд-лейбл/Record label: Sony Music
Номер в каталоге/Catalogue #: 88697574452
Формат/Format: Free Lossless Audio Codec (*.flac)
Качество/Quality: Lossless
Тип рипа/RIP Type: image+.cue
Продолжительность/Length: 00:44:04
Источник/Source: Собственный рип
Размер/Size: 335.3 MB

Сканы в комплекте

Треклист

01. The Boys of Fall [0:06:32.43]
02. Live a Little [0:03:40.19]
03. Coastal [0:02:41.58]
04. Kenny Chesney feat. Grace Potter / You And Tequila [0:04:02.63]
05. Seven Days [0:04:20.34]
06. Kenny Chesney & George Jones / Small Y'all [0:02:54.47]
07. Where I Grew Up [0:03:39.42]
08. Reality [0:03:31.13]
09. Round And Round [0:05:06.01]
10. Somewhere With You [0:04:04.71]
11. Hemingway's Whiskey [0:03:29.23]
[свернуть]

youtube.com

[свернуть]

Исполнители/Performers

Kenny Chesney – Lead Vocals
Buddy Cannon, John Wesley Ryles, Melonie Cannon, Neil Thrasher, Paul Overstreet, Scotty Emerick, Wyatt Beard – Background Vocals
Grace Potter – Background Vocals on "You and Tequila"
George Jones – Duet Vocals on "Small Y'all"
Mark Beckett – Drums
Paul Leim – Drums, Percussion
Eric Darken – Percussion
Kenny Greenberg, Pat Buchanan – Acoustic Guitar, Electric Guitar
John Willis – Acoustic Guitar, Gut String Guitar, Mandolin
Sonny Garrish – Steel Guitar
Larry Paxton – Bass Guitar, Tic Tac Bass
Larry Franklin, Rob Hajacos – Fiddle
Randy McCormick – Keyboards
John Hobbs – Keyboards, Piano
Mickey Raphael – Harmonica
Jeff Taylor – Accordion
[свернуть]

EAC лог

Exact Audio Copy V1.3 from 2. September 2016

EAC extraction logfile from 9. August 2017, 19:36

Kenny Chesney / Hemingway's Whiskey

Used drive : PLEXTOR DVDR PX-716A Adapter: 1 ID: 0

Read mode : Secure
Utilize accurate stream : Yes
Defeat audio cache : Yes
Make use of C2 pointers : No

Read offset correction : 30
Overread into Lead-In and Lead-Out : No
Fill up missing offset samples with silence : Yes
Delete leading and trailing silent blocks : No
Null samples used in CRC calculations : Yes
Used interface : Installed external ASPI interface

Used output format : User Defined Encoder
Selected bitrate : 1024 kBit/s
Quality : High
Add ID3 tag : No
Command line compressor : C:\Program Files (x86)\Exact Audio Copy\Flac\flac.exe
Additional command line options : -6 -V -T "ARTIST=%artist%" -T "TITLE=%title%" -T "ALBUM=%albumtitle%" -T "DATE=%year%" -T "TRACKNUMBER=%tracknr%" -T "GENRE=%genre%" -T "COMMENT=%comment%" -T "BAND=%albuminterpret%" -T "ALBUMARTIST=%albuminterpret%" -T "COMPOSER=%composer%" %haslyrics%--tag-from-file=LYRICS="%lyricsfile%"%haslyrics% -T "DISCNUMBER=%cdnumber%" -T "TOTALDISCS=%totalcds%" -T "TOTALTRACKS=%numtracks%" %hascover%--picture="%coverfile%"%hascover% %source% -o %dest%


TOC of the extracted CD

Track | Start | Length | Start sector | End sector
---------------------------------------------------------
1 | 0:00.00 | 6:32.43 | 0 | 29442
2 | 6:32.43 | 3:40.19 | 29443 | 45961
3 | 10:12.62 | 2:41.58 | 45962 | 58094
4 | 12:54.45 | 4:02.63 | 58095 | 76307
5 | 16:57.33 | 4:20.34 | 76308 | 95841
6 | 21:17.67 | 2:54.47 | 95842 | 108938
7 | 24:12.39 | 3:39.42 | 108939 | 125405
8 | 27:52.06 | 3:31.13 | 125406 | 141243
9 | 31:23.19 | 5:06.01 | 141244 | 164194
10 | 36:29.20 | 4:04.71 | 164195 | 182565
11 | 40:34.16 | 3:29.23 | 182566 | 198263


Range status and errors

Selected range

Filename C:\mm\Kenny Chesney\2010 - Hemingway's Whiskey [88697574452]\Kenny Chesney - Hemingway's Whiskey.wav

Peak level 99.9 %
Extraction speed 12.0 X
Range quality 100.0 %
Test CRC 9FD4B4A9
Copy CRC 9FD4B4A9
Copy OK

No errors occurred

End of status report

---- CUETools DB Plugin V2.1.6

[CTDB TOCID: i_hex3f1Fj2c7Kb661Vz6OKAeek-] found
Submit result: i_hex3f1Fj2c7Kb661Vz6OKAeek- has been confirmed
Track | CTDB Status
1 | (71/71) Accurately ripped
2 | (71/71) Accurately ripped
3 | (71/71) Accurately ripped
4 | (71/71) Accurately ripped
5 | (71/71) Accurately ripped
6 | (71/71) Accurately ripped
7 | (71/71) Accurately ripped
8 | (71/71) Accurately ripped
9 | (71/71) Accurately ripped
10 | (70/71) Accurately ripped
11 | (71/71) Accurately ripped
[свернуть]

Файл CUE

REM GENRE Country
REM DATE 2010
REM DISCID A10A530B
REM COMMENT "ExactAudioCopy v1.3"
PERFORMER "Kenny Chesney"
TITLE "Hemingway's Whiskey"
REM COMPOSER ""
FILE "Kenny Chesney - Hemingway's Whiskey.flac" WAVE
TRACK 01 AUDIO
TITLE "The Boys of Fall"
PERFORMER "Kenny Chesney"
REM COMPOSER ""
INDEX 01 00:00:00
TRACK 02 AUDIO
TITLE "Live a Little"
PERFORMER "Kenny Chesney"
REM COMPOSER ""
INDEX 00 06:31:64
INDEX 01 06:32:43
TRACK 03 AUDIO
TITLE "Coastal"
PERFORMER "Kenny Chesney"
REM COMPOSER ""
INDEX 00 10:11:51
INDEX 01 10:12:62
TRACK 04 AUDIO
TITLE "You And Tequila"
PERFORMER "Kenny Chesney feat. Grace Potter"
REM COMPOSER ""
INDEX 00 12:52:32
INDEX 01 12:54:45
TRACK 05 AUDIO
TITLE "Seven Days"
PERFORMER "Kenny Chesney"
REM COMPOSER ""
INDEX 01 16:57:33
TRACK 06 AUDIO
TITLE "Small Y'all"
PERFORMER "Kenny Chesney & George Jones"
REM COMPOSER ""
INDEX 00 21:17:11
INDEX 01 21:17:67
TRACK 07 AUDIO
TITLE "Where I Grew Up"
PERFORMER "Kenny Chesney"
REM COMPOSER ""
INDEX 00 24:12:01
INDEX 01 24:12:39
TRACK 08 AUDIO
TITLE "Reality"
PERFORMER "Kenny Chesney"
REM COMPOSER ""
INDEX 00 27:51:37
INDEX 01 27:52:06
TRACK 09 AUDIO
TITLE "Round And Round"
PERFORMER "Kenny Chesney"
REM COMPOSER ""
INDEX 00 31:22:54
INDEX 01 31:23:19
TRACK 10 AUDIO
TITLE "Somewhere With You"
PERFORMER "Kenny Chesney"
REM COMPOSER ""
INDEX 00 36:28:23
INDEX 01 36:29:20
TRACK 11 AUDIO
TITLE "Hemingway's Whiskey"
PERFORMER "Kenny Chesney"
REM COMPOSER ""
INDEX 00 40:32:59
INDEX 01 40:34:16
[свернуть]

Лог проверки качества

AUDIOCHECKER v2.0 beta (build 457) - by Dester - [Ссылки могут видеть только зарегистрированные пользователи. ]
~~~~~~~~~~~~~~~~~~~~~~~~~~~~~~~~~~
-=== НЕ РЕДАКТИРУЙТЕ ЭТОТ ФАЙЛ! ===-

Путь: ...\2010 - Hemingway's Whiskey [88697574452]

1 -=- Kenny Chesney - Hemingway's Whiskey.flac -=- CDDA (99%)

50425732
[свернуть]

Спектр частот

[свернуть]

Скачать Kenny Chesney - Hemingway's Whiskey

[Ссылки могут видеть только зарегистрированные пользователи. ]

password: sergych
[свернуть]

Контрольная сумма (хеш-сумма) архива

MD5: 39b1e9cff30169eb9c531b03aded6590
[свернуть]
My opinion of release: 9/10
__________________
TAIFUN.Wings of Soul

Вверх
2 пользователя(ей) сказали cпасибо:
johnsilver (09.08.2017), swint68 (10.08.2017)
Похожие темы
Тема Автор Раздел Ответов Последнее сообщение
Альбом Kenny Chesney - Me And You sergych Country 0 11.01.2017 20:12
Альбом Kenny Chesney - Welcome To The Fishbowl sergych Country 3 27.11.2016 11:07
Сборник Kenny Chesney - Greatest Hits sergych Country 0 29.06.2016 18:33
Альбом Kenny Chesney - The Big Revival sergych Country 0 17.11.2015 22:11
Релиз Kenny Chesney - Hemingways Whiskey PUPOKIN Country 0 25.09.2010 10:46


Метки
2010 , country , country rock , hemingway's whiskey , kenny chesney

Опции темы

Ваши права в разделе
Вы не можете создавать новые темы
Вы не можете отвечать в темах
Вы не можете прикреплять вложения
Вы не можете редактировать свои сообщения

Быстрый переход



Текущее время: 12:32. Часовой пояс GMT +3.
Powered by vBulletin® Version 3.8.7
Copyright ©2000 - 2017, vBulletin Solutions, Inc. Перевод: zCarot
© 2008 - 2017 Taifun With Song
Яндекс.Метрика